  0
SECTION
  2
HEADER
  9
$ACADVER
  1
AC1015
  9
$ACADMAINTVER
 70
     6
  9
$DWGCODEPAGE
  3
ANSI_1252
  9
$INSBASE
 10
0.0
 20
0.0
 30
0.0
  9
$EXTMIN
 10
0.0
 20
0.0
 30
0.0
  9
$EXTMAX
 10
210.0000000000001
 20
297.0000000000001
 30
0.0
  9
$LIMMIN
 10
0.0
 20
0.0
  9
$LIMMAX
 10
12.0
 20
9.0
  9
$ORTHOMODE
 70
     0
  9
$REGENMODE
 70
     1
  9
$FILLMODE
 70
     1
  9
$QTEXTMODE
 70
     0
  9
$MIRRTEXT
 70
     1
  9
$LTSCALE
 40
1.0
  9
$ATTMODE
 70
     1
  9
$TEXTSIZE
 40
0.2
  9
$TRACEWID
 40
0.05
  9
$TEXTSTYLE
  7
Standard
  9
$CLAYER
  8
0
  9
$CELTYPE
  6
ByLayer
  9
$CECOLOR
 62
   256
  9
$CELTSCALE
 40
1.0
  9
$DISPSILH
 70
     0
  9
$DIMSCALE
 40
1.0
  9
$DIMASZ
 40
0.18
  9
$DIMEXO
 40
0.0625
  9
$DIMDLI
 40
0.38
  9
$DIMRND
 40
0.0
  9
$DIMDLE
 40
0.0
  9
$DIMEXE
 40
0.18
  9
$DIMTP
 40
0.0
  9
$DIMTM
 40
0.0
  9
$DIMTXT
 40
0.18
  9
$DIMCEN
 40
0.09
  9
$DIMTSZ
 40
0.0
  9
$DIMTOL
 70
     0
  9
$DIMLIM
 70
     0
  9
$DIMTIH
 70
     1
  9
$DIMTOH
 70
     1
  9
$DIMSE1
 70
     0
  9
$DIMSE2
 70
     0
  9
$DIMTAD
 70
     0
  9
$DIMZIN
 70
     0
  9
$DIMBLK
  1

  9
$DIMASO
 70
     1
  9
$DIMSHO
 70
     1
  9
$DIMPOST
  1

  9
$DIMAPOST
  1

  9
$DIMALT
 70
     0
  9
$DIMALTD
 70
     2
  9
$DIMALTF
 40
25.4
  9
$DIMLFAC
 40
1.0
  9
$DIMTOFL
 70
     0
  9
$DIMTVP
 40
0.0
  9
$DIMTIX
 70
     0
  9
$DIMSOXD
 70
     0
  9
$DIMSAH
 70
     0
  9
$DIMBLK1
  1

  9
$DIMBLK2
  1

  9
$DIMSTYLE
  2
Standard
  9
$DIMCLRD
 70
     0
  9
$DIMCLRE
 70
     0
  9
$DIMCLRT
 70
     0
  9
$DIMTFAC
 40
1.0
  9
$DIMGAP
 40
0.09
  9
$DIMJUST
 70
     0
  9
$DIMSD1
 70
     0
  9
$DIMSD2
 70
     0
  9
$DIMTOLJ
 70
     1
  9
$DIMTZIN
 70
     0
  9
$DIMALTZ
 70
     0
  9
$DIMALTTZ
 70
     0
  9
$DIMUPT
 70
     0
  9
$DIMDEC
 70
     4
  9
$DIMTDEC
 70
     4
  9
$DIMALTU
 70
     2
  9
$DIMALTTD
 70
     2
  9
$DIMTXSTY
  7
Standard
  9
$DIMAUNIT
 70
     0
  9
$DIMADEC
 70
     0
  9
$DIMALTRND
 40
0.0
  9
$DIMAZIN
 70
     0
  9
$DIMDSEP
 70
    46
  9
$DIMATFIT
 70
     3
  9
$DIMFRAC
 70
     0
  9
$DIMLDRBLK
  1

  9
$DIMLUNIT
 70
     2
  9
$DIMLWD
 70
    -2
  9
$DIMLWE
 70
    -2
  9
$DIMTMOVE
 70
     0
  9
$LUNITS
 70
     2
  9
$LUPREC
 70
     4
  9
$SKETCHINC
 40
0.1
  9
$FILLETRAD
 40
0.5
  9
$AUNITS
 70
     0
  9
$AUPREC
 70
     0
  9
$MENU
  1
.
  9
$ELEVATION
 40
0.0
  9
$PELEVATION
 40
0.0
  9
$THICKNESS
 40
0.0
  9
$LIMCHECK
 70
     0
  9
$CHAMFERA
 40
0.5
  9
$CHAMFERB
 40
0.5
  9
$CHAMFERC
 40
1.0
  9
$CHAMFERD
 40
0.0
  9
$SKPOLY
 70
     0
  9
$TDCREATE
 40
2456997.597112291
  9
$TDUCREATE
 40
2456997.555445625
  9
$TDUPDATE
 40
2456997.597112477
  9
$TDUUPDATE
 40
2456997.55544581
  9
$TDINDWG
 40
0.0000000116
  9
$TDUSRTIMER
 40
0.0000000116
  9
$USRTIMER
 70
     1
  9
$ANGBASE
 50
0.0
  9
$ANGDIR
 70
     0
  9
$PDMODE
 70
     0
  9
$PDSIZE
 40
0.0
  9
$PLINEWID
 40
0.0
  9
$SPLFRAME
 70
     0
  9
$SPLINETYPE
 70
     6
  9
$SPLINESEGS
 70
     8
  9
$HANDSEED
  5
3C9
  9
$SURFTAB1
 70
     6
  9
$SURFTAB2
 70
     6
  9
$SURFTYPE
 70
     6
  9
$SURFU
 70
     6
  9
$SURFV
 70
     6
  9
$UCSBASE
  2

  9
$UCSNAME
  2

  9
$UCSORG
 10
0.0
 20
0.0
 30
0.0
  9
$UCSXDIR
 10
1.0
 20
0.0
 30
0.0
  9
$UCSYDIR
 10
0.0
 20
1.0
 30
0.0
  9
$UCSORTHOREF
  2

  9
$UCSORTHOVIEW
 70
     0
  9
$UCSORGTOP
 10
0.0
 20
0.0
 30
0.0
  9
$UCSORGBOTTOM
 10
0.0
 20
0.0
 30
0.0
  9
$UCSORGLEFT
 10
0.0
 20
0.0
 30
0.0
  9
$UCSORGRIGHT
 10
0.0
 20
0.0
 30
0.0
  9
$UCSORGFRONT
 10
0.0
 20
0.0
 30
0.0
  9
$UCSORGBACK
 10
0.0
 20
0.0
 30
0.0
  9
$PUCSBASE
  2

  9
$PUCSNAME
  2

  9
$PUCSORG
 10
0.0
 20
0.0
 30
0.0
  9
$PUCSXDIR
 10
1.0
 20
0.0
 30
0.0
  9
$PUCSYDIR
 10
0.0
 20
1.0
 30
0.0
  9
$PUCSORTHOREF
  2

  9
$PUCSORTHOVIEW
 70
     0
  9
$PUCSORGTOP
 10
0.0
 20
0.0
 30
0.0
  9
$PUCSORGBOTTOM
 10
0.0
 20
0.0
 30
0.0
  9
$PUCSORGLEFT
 10
0.0
 20
0.0
 30
0.0
  9
$PUCSORGRIGHT
 10
0.0
 20
0.0
 30
0.0
  9
$PUCSORGFRONT
 10
0.0
 20
0.0
 30
0.0
  9
$PUCSORGBACK
 10
0.0
 20
0.0
 30
0.0
  9
$USERI1
 70
     0
  9
$USERI2
 70
     0
  9
$USERI3
 70
     0
  9
$USERI4
 70
     0
  9
$USERI5
 70
     0
  9
$USERR1
 40
18.1
  9
$USERR2
 40
0.0
  9
$USERR3
 40
0.0
  9
$USERR4
 40
0.0
  9
$USERR5
 40
0.0
  9
$WORLDVIEW
 70
     1
  9
$SHADEDGE
 70
     3
  9
$SHADEDIF
 70
    70
  9
$TILEMODE
 70
     1
  9
$MAXACTVP
 70
    64
  9
$PINSBASE
 10
0.0
 20
0.0
 30
0.0
  9
$PLIMCHECK
 70
     0
  9
$PEXTMIN
 10
1.00000000000000E+20
 20
1.00000000000000E+20
 30
1.00000000000000E+20
  9
$PEXTMAX
 10
-1.00000000000000E+20
 20
-1.00000000000000E+20
 30
-1.00000000000000E+20
  9
$PLIMMIN
 10
0.0
 20
0.0
  9
$PLIMMAX
 10
12.0
 20
9.0
  9
$UNITMODE
 70
     0
  9
$VISRETAIN
 70
     1
  9
$PLINEGEN
 70
     0
  9
$PSLTSCALE
 70
     1
  9
$TREEDEPTH
 70
  3020
  9
$CMLSTYLE
  2
Standard
  9
$CMLJUST
 70
     0
  9
$CMLSCALE
 40
1.0
  9
$PROXYGRAPHICS
 70
     1
  9
$MEASUREMENT
 70
     1
  9
$CELWEIGHT
370
    -1
  9
$ENDCAPS
280
     0
  9
$JOINSTYLE
280
     0
  9
$LWDISPLAY
290
     0
  9
$INSUNITS
 70
     4
  9
$HYPERLINKBASE
  1

  9
$STYLESHEET
  1

  9
$XEDIT
290
     1
  9
$CEPSNTYPE
380
     0
  9
$PSTYLEMODE
290
     1
  9
$FINGERPRINTGUID
  2
{D170F416-30C2-40DD-8DAC-A74D8B68595E}
  9
$VERSIONGUID
  2
{FAEB1C32-E019-11D5-929B-00C0DF256EC4}
  9
$EXTNAMES
290
     1
  9
$PSVPSCALE
 40
0.0
  9
$OLESTARTUP
290
     0
  0
ENDSEC
  0
SECTION
  2
CLASSES
  0
CLASS
  1
ACDBDICTIONARYWDFLT
  2
AcDbDictionaryWithDefault
  3
ObjectDBX Classes
 90
        0
280
     0
281
     0
  0
CLASS
  1
VISUALSTYLE
  2
AcDbVisualStyle
  3
ObjectDBX Classes
 90
     4095
280
     0
281
     0
  0
CLASS
  1
MATERIAL
  2
AcDbMaterial
  3
ObjectDBX Classes
 90
     1153
280
     0
281
     0
  0
CLASS
  1
DICTIONARYVAR
  2
AcDbDictionaryVar
  3
ObjectDBX Classes
 90
        0
280
     0
281
     0
  0
CLASS
  1
ACDBPLACEHOLDER
  2
AcDbPlaceHolder
  3
ObjectDBX Classes
 90
        0
280
     0
281
     0
  0
CLASS
  1
LAYOUT
  2
AcDbLayout
  3
ObjectDBX Classes
 90
        0
280
     0
281
     0
  0
ENDSEC
  0
SECTION
  2
TABLES
  0
TABLE
  2
VPORT
  5
8
330
0
100
AcDbSymbolTable
 70
     1
  0
VPORT
  5
29
330
8
100
AcDbSymbolTableRecord
100
AcDbViewportTableRecord
  2
*Active
 70
     0
 10
0.0
 20
0.0
 11
1.0
 21
1.0
 12
105.0000000000001
 22
148.5000000000001
 13
0.0
 23
0.0
 14
0.5
 24
0.5
 15
0.5
 25
0.5
 16
0.0
 26
0.0
 36
1.0
 17
0.0
 27
0.0
 37
0.0
 40
326.7000000000002
 41
1.60267857142857
 42
50.0
 43
0.0
 44
0.0
 50
0.0
 51
0.0
 71
     0
 72
   100
 73
     1
 74
     3
 75
     0
 76
     0
 77
     0
 78
     0
281
     0
 65
     1
110
0.0
120
0.0
130
0.0
111
1.0
121
0.0
131
0.0
112
0.0
122
1.0
132
0.0
 79
     0
146
0.0
  0
ENDTAB
  0
TABLE
  2
LTYPE
  5
5
330
0
100
AcDbSymbolTable
 70
     8
  0
LTYPE
  5
14
330
5
100
AcDbSymbolTableRecord
100
AcDbLinetypeTableRecord
  2
ByBlock
 70
     0
  3

 72
    65
 73
     0
 40
0.0
  0
LTYPE
  5
15
330
5
100
AcDbSymbolTableRecord
100
AcDbLinetypeTableRecord
  2
ByLayer
 70
     0
  3

 72
    65
 73
     0
 40
0.0
  0
LTYPE
  5
16
330
5
100
AcDbSymbolTableRecord
100
AcDbLinetypeTableRecord
  2
Continuous
 70
     0
  3
Solid line
 72
    65
 73
     0
 40
0.0
  0
LTYPE
  5
3F
330
5
100
AcDbSymbolTableRecord
100
AcDbLinetypeTableRecord
  2
DASHED
 70
     0
  3
Dashed
 72
    65
 73
     2
 40
15.0
 49
7.0
 74
     0
 49
-8.0
 74
     0
  0
LTYPE
  5
40
330
5
100
AcDbSymbolTableRecord
100
AcDbLinetypeTableRecord
  2
DOTTED
 70
     0
  3
Dotted
 72
    65
 73
     2
 40
1.0
 49
0.0
 74
     0
 49
-1.0
 74
     0
  0
LTYPE
  5
41
330
5
100
AcDbSymbolTableRecord
100
AcDbLinetypeTableRecord
  2
DOT_CENTER
 70
     0
  3
Dot_Center
 72
    65
 73
     4
 40
14.0
 49
12.0
 74
     0
 49
-1.0
 74
     0
 49
0.0
 74
     0
 49
-1.0
 74
     0
  0
LTYPE
  5
42
330
5
100
AcDbSymbolTableRecord
100
AcDbLinetypeTableRecord
  2
LONG_DASHED
 70
     0
  3
Long_Dashed
 72
    65
 73
     2
 40
15.0
 49
10.0
 74
     0
 49
-5.0
 74
     0
  0
LTYPE
  5
43
330
5
100
AcDbSymbolTableRecord
100
AcDbLinetypeTableRecord
  2
DASH_CENTER
 70
     0
  3
Dash_Center
 72
    65
 73
     4
 40
14.0
 49
11.0
 74
     0
 49
-1.0
 74
     0
 49
1.0
 74
     0
 49
-1.0
 74
     0
  0
LTYPE
  5
44
330
5
100
AcDbSymbolTableRecord
100
AcDbLinetypeTableRecord
  2
PHANTOM
 70
     0
  3
Phantom
 72
    65
 73
     6
 40
13.0
 49
10.0
 74
     0
 49
-1.0
 74
     0
 49
0.0
 74
     0
 49
-1.0
 74
     0
 49
0.0
 74
     0
 49
-1.0
 74
     0
  0
LTYPE
  5
45
330
5
100
AcDbSymbolTableRecord
100
AcDbLinetypeTableRecord
  2
CENTER_DASH_DASH
 70
     0
  3
Center_Dash_Dash
 72
    65
 73
     6
 40
14.0
 49
9.0
 74
     0
 49
-1.0
 74
     0
 49
1.0
 74
     0
 49
-1.0
 74
     0
 49
1.0
 74
     0
 49
-1.0
 74
     0
  0
ENDTAB
  0
TABLE
  2
LAYER
  5
2
330
0
100
AcDbSymbolTable
 70
     5
  0
LAYER
  5
10
330
2
100
AcDbSymbolTableRecord
100
AcDbLayerTableRecord
  2
0
 70
     0
 62
     7
  6
Continuous
370
    -3
390
F
  0
LAYER
  5
46
330
2
100
AcDbSymbolTableRecord
100
AcDbLayerTableRecord
  2
1
 70
     0
 62
     7
  6
Continuous
370
    -3
390
F
  0
LAYER
  5
47
330
2
100
AcDbSymbolTableRecord
100
AcDbLayerTableRecord
  2
Bemaßungen_TC_020513_DIN_
 70
     0
 62
     7
  6
Continuous
370
    -3
390
F
  0
LAYER
  5
48
330
2
100
AcDbSymbolTableRecord
100
AcDbLayerTableRecord
  2
Sichtbare_Kanten_TC_020513_DIN_
 70
     0
 62
     7
  6
Continuous
370
    -3
390
F
  0
LAYER
  5
49
330
2
100
AcDbSymbolTableRecord
100
AcDbLayerTableRecord
  2
Stich_1-Linien_TC_020513_DIN_
 70
     0
 62
     7
  6
Continuous
370
    -3
390
F
  0
ENDTAB
  0
TABLE
  2
STYLE
  5
3
330
0
100
AcDbSymbolTable
 70
     4
  0
STYLE
  5
11
330
3
100
AcDbSymbolTableRecord
100
AcDbTextStyleTableRecord
  2
Standard
 70
     0
 40
0.0
 41
1.0
 50
0.0
 71
     0
 42
0.2
  3
txt
  4

  0
STYLE
  5
9E
330
3
100
AcDbSymbolTableRecord
100
AcDbTextStyleTableRecord
  2
CONVERTER_11
 70
     0
 40
0.0
 41
1.2
 50
0.0
 71
     0
 42
0.2
  3
ARIAL.TTF
  4

  0
STYLE
  5
A7
330
3
100
AcDbSymbolTableRecord
100
AcDbTextStyleTableRecord
  2
CONVERTER_12
 70
     0
 40
0.0
 41
1.38
 50
0.0
 71
     0
 42
0.2
  3
ARIAL.TTF
  4

  0
STYLE
  5
36C
330
3
100
AcDbSymbolTableRecord
100
AcDbTextStyleTableRecord
  2
CONVERTER_13
 70
     0
 40
0.0
 41
0.95
 50
0.0
 71
     0
 42
0.2
  3
simplex.shx
  4

  0
ENDTAB
  0
TABLE
  2
VIEW
  5
6
330
0
100
AcDbSymbolTable
 70
     0
  0
ENDTAB
  0
TABLE
  2
UCS
  5
7
330
0
100
AcDbSymbolTable
 70
     0
  0
ENDTAB
  0
TABLE
  2
APPID
  5
9
330
0
100
AcDbSymbolTable
 70
     1
  0
APPID
  5
12
330
9
100
AcDbSymbolTableRecord
100
AcDbRegAppTableRecord
  2
ACAD
 70
     0
  0
ENDTAB
  0
TABLE
  2
DIMSTYLE
  5
A
330
0
100
AcDbSymbolTable
 70
     6
100
AcDbDimStyleTable
  0
DIMSTYLE
105
27
330
A
100
AcDbSymbolTableRecord
100
AcDbDimStyleTableRecord
  2
Standard
 70
     0
178
     0
340
11
  0
DIMSTYLE
105
370
102
{ACAD_REACTORS
330
371
102
}
330
A
100
AcDbSymbolTableRecord
100
AcDbDimStyleTableRecord
  2
ME10_DIM_10
 70
     0
 41
3.0
 42
0.5
 44
1.0
 73
     0
 74
     0
 77
     1
 78
     8
140
3.0
147
2.0
172
     1
173
     1
174
     1
175
     1
176
     2
177
     2
271
     2
178
     4
271
     2
340
36C
  0
DIMSTYLE
105
37B
102
{ACAD_REACTORS
330
37C
102
}
330
A
100
AcDbSymbolTableRecord
100
AcDbDimStyleTableRecord
  2
ME10_DIM_11
 70
     0
 41
3.0
 42
0.5
 44
1.0
 73
     0
 74
     0
 77
     1
 78
     8
140
3.0
147
2.0
172
     1
173
     1
174
     1
175
     1
176
     2
177
     2
271
     2
178
     4
271
     2
340
36C
  0
DIMSTYLE
105
386
102
{ACAD_REACTORS
330
387
102
}
330
A
100
AcDbSymbolTableRecord
100
AcDbDimStyleTableRecord
  2
ME10_DIM_12
 70
     0
 41
3.0
 42
0.5
 44
1.0
 73
     0
 74
     0
 77
     1
 78
     8
140
3.0
147
2.0
172
     1
173
     1
174
     1
175
     1
176
     2
177
     2
271
     2
178
     4
271
     2
340
36C
  0
DIMSTYLE
105
391
102
{ACAD_REACTORS
330
392
102
}
330
A
100
AcDbSymbolTableRecord
100
AcDbDimStyleTableRecord
  2
ME10_DIM_13
 70
     0
 41
3.0
 42
0.5
 44
1.0
 73
     0
 74
     0
 77
     1
 78
     8
140
3.0
147
2.0
172
     1
173
     1
174
     1
175
     1
176
     2
177
     2
271
     2
178
     4
271
     2
340
36C
  0
DIMSTYLE
105
39C
102
{ACAD_REACTORS
330
39D
102
}
330
A
100
AcDbSymbolTableRecord
100
AcDbDimStyleTableRecord
  2
ME10_DIM_14
 70
     0
 41
3.0
 42
0.5
 44
1.0
 73
     0
 74
     0
 77
     1
 78
     8
140
3.0
147
2.0
172
     1
173
     1
174
     1
175
     1
176
     2
177
     2
271
     2
178
     4
271
     2
340
36C
  0
ENDTAB
  0
TABLE
  2
BLOCK_RECORD
  5
1
330
0
100
AcDbSymbolTable
 70
     8
  0
BLOCK_RECORD
  5
1F
330
1
100
AcDbSymbolTableRecord
100
AcDbBlockTableRecord
  2
*Model_Space
340
22
  0
BLOCK_RECORD
  5
1B
330
1
100
AcDbSymbolTableRecord
100
AcDbBlockTableRecord
  2
*Paper_Space
340
1E
  0
BLOCK_RECORD
  5
23
330
1
100
AcDbSymbolTableRecord
100
AcDbBlockTableRecord
  2
*Paper_Space0
340
26
  0
BLOCK_RECORD
  5
4A
330
1
100
AcDbSymbolTableRecord
100
AcDbBlockTableRecord
  2
_formato_A4
340
0
102
{BLKREFS
331
4E
102
}
  0
BLOCK_RECORD
  5
4D
330
1
100
AcDbSymbolTableRecord
100
AcDbBlockTableRecord
  2
A4
340
0
102
{BLKREFS
331
51
102
}
  0
BLOCK_RECORD
  5
366
330
1
100
AcDbSymbolTableRecord
100
AcDbBlockTableRecord
  2
*D3
340
0
  0
BLOCK_RECORD
  5
372
330
1
100
AcDbSymbolTableRecord
100
AcDbBlockTableRecord
  2
*D4
340
0
  0
BLOCK_RECORD
  5
37D
330
1
100
AcDbSymbolTableRecord
100
AcDbBlockTableRecord
  2
*D5
340
0
  0
BLOCK_RECORD
  5
388
330
1
100
AcDbSymbolTableRecord
100
AcDbBlockTableRecord
  2
*D6
340
0
  0
BLOCK_RECORD
  5
393
330
1
100
AcDbSymbolTableRecord
100
AcDbBlockTableRecord
  2
*D7
340
0
  0
ENDTAB
  0
ENDSEC
  0
SECTION
  2
BLOCKS
  0
BLOCK
  5
20
330
1F
100
AcDbEntity
  8
0
100
AcDbBlockBegin
  2
*Model_Space
 70
     0
 10
0.0
 20
0.0
 30
0.0
  3
*Model_Space
  1

  0
ENDBLK
  5
21
330
1F
100
AcDbEntity
  8
0
100
AcDbBlockEnd
  0
BLOCK
  5
1C
330
1B
100
AcDbEntity
 67
     1
  8
0
100
AcDbBlockBegin
  2
*Paper_Space
 70
     0
 10
0.0
 20
0.0
 30
0.0
  3
*Paper_Space
  1

  0
ENDBLK
  5
1D
330
1B
100
AcDbEntity
 67
     1
  8
0
100
AcDbBlockEnd
  0
BLOCK
  5
24
330
23
100
AcDbEntity
  8
0
100
AcDbBlockBegin
  2
*Paper_Space0
 70
     0
 10
0.0
 20
0.0
 30
0.0
  3
*Paper_Space0
  1

  0
ENDBLK
  5
25
330
23
100
AcDbEntity
  8
0
100
AcDbBlockEnd
  0
BLOCK
  5
4B
330
4A
100
AcDbEntity
  8
0
100
AcDbBlockBegin
  2
_formato_A4
 70
     0
 10
210.0000000000001
 20
0.0
 30
0.0
  3
_formato_A4
  1

  0
LINE
  5
52
330
4A
100
AcDbEntity
  8
1
  6
Continuous
 62
     7
100
AcDbLine
 10
21.00000000000011
 20
20.0
 30
0.0
 11
205.0000000000001
 21
20.0
 31
0.0
  0
LINE
  5
53
330
4A
100
AcDbEntity
  8
1
  6
Continuous
 62
     7
100
AcDbLine
 10
21.00000000000011
 20
4.99999999999989
 30
0.0
 11
205.0000000000001
 21
4.99999999999989
 31
0.0
  0
LINE
  5
54
330
4A
100
AcDbEntity
  8
1
  6
Continuous
 62
     7
100
AcDbLine
 10
46.00000000000023
 20
35.0
 30
0.0
 11
46.00000000000023
 21
40.0
 31
0.0
  0
LINE
  5
55
330
4A
100
AcDbEntity
  8
1
  6
Continuous
 62
     7
100
AcDbLine
 10
28.00000000000011
 20
35.0
 30
0.0
 11
28.00000000000011
 21
40.0
 31
0.0
  0
LINE
  5
56
330
4A
100
AcDbEntity
  8
1
  6
Continuous
 62
     7
100
AcDbLine
 10
21.00000000000011
 20
40.0
 30
0.0
 11
205.0000000000001
 21
40.0
 31
0.0
  0
LINE
  5
57
330
4A
100
AcDbEntity
  8
1
  6
Continuous
 62
     7
100
AcDbLine
 10
46.00000000000023
 20
30.0
 30
0.0
 11
46.00000000000023
 21
35.0
 31
0.0
  0
LINE
  5
58
330
4A
100
AcDbEntity
  8
1
  6
Continuous
 62
     7
100
AcDbLine
 10
28.00000000000011
 20
30.0
 30
0.0
 11
28.00000000000011
 21
35.0
 31
0.0
  0
LINE
  5
59
330
4A
100
AcDbEntity
  8
1
  6
Continuous
 62
     7
100
AcDbLine
 10
21.00000000000011
 20
35.0
 30
0.0
 11
205.0000000000001
 21
35.0
 31
0.0
  0
LINE
  5
5A
330
4A
100
AcDbEntity
  8
1
  6
Continuous
 62
     7
100
AcDbLine
 10
46.00000000000023
 20
25.0
 30
0.0
 11
46.00000000000023
 21
30.0
 31
0.0
  0
LINE
  5
5B
330
4A
100
AcDbEntity
  8
1
  6
Continuous
 62
     7
100
AcDbLine
 10
28.00000000000011
 20
25.0
 30
0.0
 11
28.00000000000011
 21
30.0
 31
0.0
  0
LINE
  5
5C
330
4A
100
AcDbEntity
  8
1
  6
Continuous
 62
     7
100
AcDbLine
 10
21.00000000000011
 20
30.0
 30
0.0
 11
205.0000000000001
 21
30.0
 31
0.0
  0
LINE
  5
5D
330
4A
100
AcDbEntity
  8
1
  6
Continuous
 62
     7
100
AcDbLine
 10
46.00000000000023
 20
20.0
 30
0.0
 11
46.00000000000023
 21
25.0
 31
0.0
  0
LINE
  5
5E
330
4A
100
AcDbEntity
  8
1
  6
Continuous
 62
     7
100
AcDbLine
 10
28.00000000000011
 20
20.0
 30
0.0
 11
28.00000000000011
 21
25.0
 31
0.0
  0
LINE
  5
5F
330
4A
100
AcDbEntity
  8
1
  6
Continuous
 62
     7
100
AcDbLine
 10
21.00000000000011
 20
25.0
 30
0.0
 11
205.0000000000001
 21
25.0
 31
0.0
  0
LINE
  5
60
102
{ACAD_REACTORS
330
A9
102
}
330
4A
100
AcDbEntity
  8
1
  6
Continuous
 62
     7
100
AcDbLine
 10
195.8428748399059
 20
10.55800208038033
 30
0.0
 11
194.5095415065727
 21
9.78877131114973
 31
0.0
  0
LINE
  5
61
102
{ACAD_REACTORS
330
A9
102
}
330
4A
100
AcDbEntity
  8
1
  6
Continuous
 62
     7
100
AcDbLine
 10
194.6763006887428
 20
10.65463653264794
 30
0.0
 11
195.5097265375796
 21
11.13545913774624
 31
0.0
  0
LINE
  5
62
102
{ACAD_REACTORS
330
A9
102
}
330
4A
100
AcDbEntity
  8
1
  6
Continuous
 62
     7
100
AcDbLine
 10
194.6763006887428
 20
12.16666666666663
 30
0.0
 11
194.6763006887428
 21
10.65463653264794
 31
0.0
  0
LINE
  5
63
102
{ACAD_REACTORS
330
A9
102
}
330
4A
100
AcDbEntity
  8
1
  6
Continuous
 62
     7
100
AcDbLine
 10
195.6763006887428
 20
12.16666666666663
 30
0.0
 11
194.6763006887428
 21
12.16666666666663
 31
0.0
  0
LINE
  5
64
102
{ACAD_REACTORS
330
A9
102
}
330
4A
100
AcDbEntity
  8
1
  6
Continuous
 62
     7
100
AcDbLine
 10
194.6763006887428
 20
12.83333333333326
 30
0.0
 11
195.6763006887428
 21
12.83333333333326
 31
0.0
  0
LINE
  5
65
102
{ACAD_REACTORS
330
A9
102
}
330
4A
100
AcDbEntity
  8
1
  6
Continuous
 62
     7
100
AcDbLine
 10
194.6763006887428
 20
14.34536346735194
 30
0.0
 11
194.6763006887428
 21
12.83333333333326
 31
0.0
  0
LINE
  5
66
102
{ACAD_REACTORS
330
A9
102
}
330
4A
100
AcDbEntity
  8
1
  6
Continuous
 62
     7
100
AcDbLine
 10
195.5097265375796
 20
13.86454086225376
 30
0.0
 11
194.6763006887428
 21
14.34536346735194
 31
0.0
  0
LINE
  5
67
102
{ACAD_REACTORS
330
A9
102
}
330
4A
100
AcDbEntity
  8
1
  6
Continuous
 62
     7
100
AcDbLine
 10
194.5095415065727
 20
15.21122868885027
 30
0.0
 11
195.8428748399059
 21
14.44199791961944
 31
0.0
  0
LINE
  5
68
102
{ACAD_REACTORS
330
AA
102
}
330
4A
100
AcDbEntity
  8
1
  6
Continuous
 62
     7
100
AcDbLine
 10
187.3429673554094
 20
10.84673060906323
 30
0.0
 11
187.3429673554094
 21
14.15326939093666
 31
0.0
  0
LINE
  5
69
102
{ACAD_REACTORS
330
AA
102
}
330
4A
100
AcDbEntity
  8
1
  6
Continuous
 62
     7
100
AcDbLine
 10
188.0096340220761
 20
11.0392519172633
 30
0.0
 11
188.0096340220761
 21
10.84673060906323
 31
0.0
  0
LINE
  5
6A
102
{ACAD_REACTORS
330
AA
102
}
330
4A
100
AcDbEntity
  8
1
  6
Continuous
 62
     7
100
AcDbLine
 10
188.0096340220761
 20
14.15326939093666
 30
0.0
 11
188.0096340220761
 21
11.0392519172633
 31
0.0
  0
LINE
  5
6B
102
{ACAD_REACTORS
330
AB
102
}
330
4A
100
AcDbEntity
  8
1
  6
Continuous
 62
     7
100
AcDbLine
 10
191.1763932042462
 20
8.44261746499581
 30
0.0
 11
189.0098190530831
 21
9.69256409066691
 31
0.0
  0
LINE
  5
6C
102
{ACAD_REACTORS
330
AB
102
}
330
4A
100
AcDbEntity
  8
1
  6
Continuous
 62
     7
100
AcDbLine
 10
189.3429673554094
 20
10.2700211480327
 30
0.0
 11
191.5095415065727
 21
9.0200745223616
 31
0.0
  0
LINE
  5
6D
102
{ACAD_REACTORS
330
AB
102
}
330
4A
100
AcDbEntity
  8
1
  6
Continuous
 62
     7
100
AcDbLine
 10
189.3429673554094
 20
14.92250016016737
 30
0.0
 11
189.3429673554094
 21
10.2700211480327
 31
0.0
  0
LINE
  5
6E
102
{ACAD_REACTORS
330
AB
102
}
330
4A
100
AcDbEntity
  8
1
  6
Continuous
 62
     7
100
AcDbLine
 10
188.6763006887428
 20
10.27002114803258
 30
0.0
 11
188.6763006887428
 21
14.92250016016737
 31
0.0
  0
LINE
  5
6F
102
{ACAD_REACTORS
330
AC
102
}
330
4A
100
AcDbEntity
  8
1
  6
Continuous
 62
     7
100
AcDbLine
 10
192.8485336717861
 20
15.86370041827229
 30
0.0
 11
191.6763006887428
 21
13.83333333333326
 31
0.0
  0
LINE
  5
70
102
{ACAD_REACTORS
330
AC
102
}
330
4A
100
AcDbEntity
  8
1
  6
Continuous
 62
     7
100
AcDbLine
 10
193.3429673554094
 20
9.3082690706018
 30
0.0
 11
193.3429673554094
 21
15.73121731203457
 31
0.0
  0
LINE
  5
71
102
{ACAD_REACTORS
330
AC
102
}
330
4A
100
AcDbEntity
  8
1
  6
Continuous
 62
     7
100
AcDbLine
 10
192.6763006887428
 20
12.5
 30
0.0
 11
192.6763006887428
 21
9.3082690706018
 31
0.0
  0
LINE
  5
72
102
{ACAD_REACTORS
330
AC
102
}
330
4A
100
AcDbEntity
  8
1
  6
Continuous
 62
     7
100
AcDbLine
 10
190.6763006887428
 20
10.84758507263291
 30
0.0
 11
190.6763006887428
 21
12.5
 31
0.0
  0
LINE
  5
73
102
{ACAD_REACTORS
330
AC
102
}
330
4A
100
AcDbEntity
  8
1
  6
Continuous
 62
     7
100
AcDbLine
 10
190.0096340220761
 20
12.5
 30
0.0
 11
190.0096340220761
 21
10.84758507263291
 31
0.0
  0
LINE
  5
74
102
{ACAD_REACTORS
330
AC
102
}
330
4A
100
AcDbEntity
  8
1
  6
Continuous
 62
     7
100
AcDbLine
 10
190.5040677056995
 20
15.86370041827229
 30
0.0
 11
191.6763006887428
 21
13.83333333333326
 31
0.0
  0
LINE
  5
75
102
{ACAD_REACTORS
330
AC
102
}
330
4A
100
AcDbEntity
  8
1
  6
Continuous
 62
     7
100
AcDbLine
 10
190.0096340220761
 20
12.5
 30
0.0
 11
190.0096340220761
 21
15.73121731203457
 31
0.0
  0
LINE
  5
76
330
4A
100
AcDbEntity
  8
1
  6
Continuous
 62
     7
100
AcDbLine
 10
191.6763006887428
 20
7.5
 30
0.0
 11
183.2598654136012
 21
12.35563573565855
 31
0.0
  0
LINE
  5
77
330
4A
100
AcDbEntity
  8
1
  6
Continuous
 62
     7
100
AcDbLine
 10
200.0927359638843
 20
12.35563573565855
 30
0.0
 11
191.6763006887428
 21
7.5
 31
0.0
  0
LINE
  5
78
330
4A
100
AcDbEntity
  8
1
  6
Continuous
 62
     7
100
AcDbLine
 10
191.6763006887428
 20
17.5
 30
0.0
 11
200.0927359638843
 21
12.64436426434133
 31
0.0
  0
LINE
  5
79
330
4A
100
AcDbEntity
  8
1
  6
Continuous
 62
     7
100
AcDbLine
 10
183.2598654136012
 20
12.64436426434133
 30
0.0
 11
191.6763006887428
 21
17.5
 31
0.0
  0
LINE
  5
7A
102
{ACAD_REACTORS
330
AC
102
}
330
4A
100
AcDbEntity
  8
1
  6
Continuous
 62
     7
100
AcDbLine
 10
190.6763006887428
 20
14.23205080756884
 30
0.0
 11
190.6763006887428
 21
12.5
 31
0.0
  0
LINE
  5
7B
102
{ACAD_REACTORS
330
AC
102
}
330
4A
100
AcDbEntity
  8
1
  6
Continuous
 62
     7
100
AcDbLine
 10
191.5319631214453
 20
12.75
 30
0.0
 11
190.6763006887428
 21
14.23205080756884
 31
0.0
  0
LINE
  5
7C
102
{ACAD_REACTORS
330
AC
102
}
330
4A
100
AcDbEntity
  8
1
  6
Continuous
 62
     7
100
AcDbLine
 10
192.6763006887428
 20
14.23205080756884
 30
0.0
 11
191.8206382560402
 21
12.75
 31
0.0
  0
LINE
  5
7D
102
{ACAD_REACTORS
330
AC
102
}
330
4A
100
AcDbEntity
  8
1
  6
Continuous
 62
     7
100
AcDbLine
 10
192.6763006887428
 20
12.5
 30
0.0
 11
192.6763006887428
 21
14.23205080756884
 31
0.0
  0
LINE
  5
7E
102
{ACAD_REACTORS
330
A9
102
}
330
4A
100
AcDbEntity
  8
1
  6
Continuous
 62
     7
100
AcDbLine
 10
194.0096340220762
 20
10.07749983983263
 30
0.0
 11
194.0096340220762
 21
14.92250016016737
 31
0.0
  0
LINE
  5
7F
330
4A
100
AcDbEntity
  8
1
  6
Continuous
 62
     7
100
AcDbLine
 10
21.00000000000011
 20
292.0000000000001
 30
0.0
 11
21.00000000000011
 21
4.99999999999989
 31
0.0
  0
LINE
  5
80
330
4A
100
AcDbEntity
  8
1
  6
Continuous
 62
     7
100
AcDbLine
 10
205.0000000000001
 20
292.0000000000001
 30
0.0
 11
21.00000000000011
 21
292.0000000000001
 31
0.0
  0
LINE
  5
81
330
4A
100
AcDbEntity
  8
1
  6
Continuous
 62
     7
100
AcDbLine
 10
205.0000000000001
 20
4.99999999999989
 30
0.0
 11
205.0000000000001
 21
292.0000000000001
 31
0.0
  0
LINE
  5
82
330
4A
100
AcDbEntity
  8
1
  6
Continuous
 62
     7
100
AcDbLine
 10
210.0000000000001
 20
297.0000000000001
 30
0.0
 11
0.0
 21
297.0000000000001
 31
0.0
  0
LINE
  5
83
330
4A
100
AcDbEntity
  8
1
  6
Continuous
 62
     7
100
AcDbLine
 10
0.0
 20
297.0000000000001
 30
0.0
 11
0.0
 21
0.0
 31
0.0
  0
LINE
  5
84
330
4A
100
AcDbEntity
  8
1
  6
Continuous
 62
     7
100
AcDbLine
 10
0.0
 20
0.0
 30
0.0
 11
210.0000000000001
 21
0.0
 31
0.0
  0
LINE
  5
85
330
4A
100
AcDbEntity
  8
1
  6
Continuous
 62
     7
100
AcDbLine
 10
210.0000000000001
 20
0.0
 30
0.0
 11
210.0000000000001
 21
297.0000000000001
 31
0.0
  0
LINE
  5
86
330
4A
100
AcDbEntity
  8
1
  6
Continuous
 62
     7
100
AcDbLine
 10
0.0
 20
148.4999999999998
 30
0.0
 11
15.0
 21
148.4999999999998
 31
0.0
  0
LINE
  5
87
330
4A
100
AcDbEntity
  8
1
  6
Continuous
 62
     7
100
AcDbLine
 10
21.00000000000011
 20
9.99999999999986
 30
0.0
 11
51.00000000000011
 21
9.99999999999986
 31
0.0
  0
LINE
  5
88
330
4A
100
AcDbEntity
  8
1
  6
Continuous
 62
     7
100
AcDbLine
 10
51.00000000000011
 20
20.0
 30
0.0
 11
51.00000000000011
 21
5.0
 31
0.0
  0
LINE
  5
89
330
4A
100
AcDbEntity
  8
1
  6
Continuous
 62
     7
100
AcDbLine
 10
178.3526013774855
 20
20.0
 30
0.0
 11
178.3526013774855
 21
5.0
 31
0.0
  0
LINE
  5
8A
330
4A
100
AcDbEntity
  8
1
  6
Continuous
 62
     7
100
AcDbLine
 10
161.0000000000001
 20
20.0
 30
0.0
 11
161.0000000000001
 21
5.0
 31
0.0
  0
LINE
  5
8B
330
4A
100
AcDbEntity
  8
1
  6
Continuous
 62
     7
100
AcDbLine
 10
21.00000000000011
 20
20.0
 30
0.0
 11
21.00000000000011
 21
4.99999999999989
 31
0.0
  0
LINE
  5
8C
330
4A
100
AcDbEntity
  8
1
  6
Continuous
 62
     7
100
AcDbLine
 10
21.00000000000011
 20
14.99999999999989
 30
0.0
 11
51.00000000000011
 21
14.99999999999989
 31
0.0
  0
ARC
  5
8D
102
{ACAD_REACTORS
330
A9
102
}
330
4A
100
AcDbEntity
  8
1
  6
Continuous
 62
     7
100
AcDbCircle
 10
195.6763006887428
 20
10.84673060906323
 30
0.0
 40
0.3333333333333172
100
AcDbArc
 50
299.9816393688334
 51
119.9816393688365
  0
ARC
  5
8E
102
{ACAD_REACTORS
330
A9
102
}
330
4A
100
AcDbEntity
  8
1
  6
Continuous
 62
     7
100
AcDbCircle
 10
195.6763006887428
 20
12.5
 30
0.0
 40
0.3333333333333695
100
AcDbArc
 50
270.0
 51
90.0
  0
ARC
  5
8F
102
{ACAD_REACTORS
330
A9
102
}
330
4A
100
AcDbEntity
  8
1
  6
Continuous
 62
     7
100
AcDbCircle
 10
195.6763006887428
 20
14.15326939093666
 30
0.0
 40
0.3333333333333613
100
AcDbArc
 50
240.018360631154
 51
60.01836063115638
  0
ARC
  5
90
102
{ACAD_REACTORS
330
AA
102
}
330
4A
100
AcDbEntity
  8
1
  6
Continuous
 62
     7
100
AcDbCircle
 10
187.6763006887428
 20
10.84673060906323
 30
0.0
 40
0.3333333333333997
100
AcDbArc
 50
180.0
 51
0.0
  0
ARC
  5
91
102
{ACAD_REACTORS
330
AA
102
}
330
4A
100
AcDbEntity
  8
1
  6
Continuous
 62
     7
100
AcDbCircle
 10
187.6763006887428
 20
14.15326939093666
 30
0.0
 40
0.3333333333333144
100
AcDbArc
 50
0.0
 51
180.0
  0
ARC
  5
92
102
{ACAD_REACTORS
330
AB
102
}
330
4A
100
AcDbEntity
  8
1
  6
Continuous
 62
     7
100
AcDbCircle
 10
191.3429673554094
 20
8.7313459936787
 30
0.0
 40
0.3333333333333567
100
AcDbArc
 50
240.0183606311536
 51
60.01836063113668
  0
ARC
  5
93
102
{ACAD_REACTORS
330
AB
102
}
330
4A
100
AcDbEntity
  8
1
  6
Continuous
 62
     7
100
AcDbCircle
 10
189.0096340220761
 20
14.92250016016737
 30
0.0
 40
0.333333333333286
100
AcDbArc
 50
0.0
 51
180.0
  0
ARC
  5
94
102
{ACAD_REACTORS
330
AC
102
}
330
4A
100
AcDbEntity
  8
1
  6
Continuous
 62
     7
100
AcDbCircle
 10
193.0780011429341
 20
15.73121731203457
 30
0.0
 40
0.2649662124752865
100
AcDbArc
 50
0.0
 51
149.9999999999716
  0
ARC
  5
95
102
{ACAD_REACTORS
330
AC
102
}
330
4A
100
AcDbEntity
  8
1
  6
Continuous
 62
     7
100
AcDbCircle
 10
193.0096340220762
 20
9.3082690706018
 30
0.0
 40
0.3333333333333997
100
AcDbArc
 50
180.0
 51
0.0
  0
ARC
  5
96
102
{ACAD_REACTORS
330
AC
102
}
330
4A
100
AcDbEntity
  8
1
  6
Continuous
 62
     7
100
AcDbCircle
 10
190.3429673554094
 20
10.84758507263291
 30
0.0
 40
0.333333333333286
100
AcDbArc
 50
180.0
 51
0.0
  0
ARC
  5
97
102
{ACAD_REACTORS
330
AC
102
}
330
4A
100
AcDbEntity
  8
1
  6
Continuous
 62
     7
100
AcDbCircle
 10
190.2746002345514
 20
15.73121731203457
 30
0.0
 40
0.2649662124752854
100
AcDbArc
 50
30.00000000001921
 51
180.0
  0
ARC
  5
98
102
{ACAD_REACTORS
330
A9
102
}
330
4A
100
AcDbEntity
  8
1
  6
Continuous
 62
     7
100
AcDbCircle
 10
194.3429673554094
 20
10.07749983983263
 30
0.0
 40
0.3333333333332007
100
AcDbArc
 50
180.0
 51
299.981639368863
  0
ARC
  5
99
102
{ACAD_REACTORS
330
A9
102
}
330
4A
100
AcDbEntity
  8
1
  6
Continuous
 62
     7
100
AcDbCircle
 10
194.3429673554094
 20
14.92250016016737
 30
0.0
 40
0.3333333333334166
100
AcDbArc
 50
60.01836063113698
 51
180.0
  0
ARC
  5
9A
330
4A
100
AcDbEntity
  8
1
  6
Continuous
 62
     7
100
AcDbCircle
 10
200.0094488883027
 20
12.5
 30
0.0
 40
0.166666666666687
100
AcDbArc
 50
299.9816393688503
 51
60.01836063112923
  0
ARC
  5
9B
330
4A
100
AcDbEntity
  8
1
  6
Continuous
 62
     7
100
AcDbCircle
 10
183.3431524891829
 20
12.5
 30
0.0
 40
0.1666666666666265
100
AcDbArc
 50
119.9816393688962
 51
240.0183606311243
  0
ARC
  5
9C
102
{ACAD_REACTORS
330
AB
102
}
330
4A
100
AcDbEntity
  8
1
  6
Continuous
 62
     7
100
AcDbCircle
 10
189.3429673554094
 20
10.2700211480327
 30
0.0
 40
0.6666666666666003
100
AcDbArc
 50
180.0000000000104
 51
240.0183606311601
  0
ARC
  5
9D
102
{ACAD_REACTORS
330
AC
102
}
330
4A
100
AcDbEntity
  8
1
  6
Continuous
 62
     7
100
AcDbCircle
 10
191.6763006887428
 20
12.83333333333326
 30
0.0
 40
0.166666666666709
100
AcDbArc
 50
209.9999999999622
 51
330.0000000000231
  0
MTEXT
  5
9F
330
4A
100
AcDbEntity
  8
1
 62
     7
100
AcDbMText
 10
169.6763006887428
 20
10.06063942075605
 30
0.0
 40
4.5
 41
0.0
 71
     5
 72
     1
  1
1:1
  7
CONVERTER_11
 73
     1
 44
1.32052821128451
  0
MTEXT
  5
A0
330
4A
100
AcDbEntity
  8
1
 62
     7
100
AcDbMText
 10
169.6763006887428
 20
16.26063942075598
 30
0.0
 40
3.0
 41
0.0
 71
     5
 72
     1
  1
Scale
  7
CONVERTER_11
 73
     1
 44
1.32052821128451
  0
MTEXT
  5
A1
330
4A
100
AcDbEntity
  8
1
 62
     7
100
AcDbMText
 10
57.27630068874282
 20
12.5
 30
0.0
 40
4.5
 41
0.0
 71
     4
 72
     1
  1
MKA VG20\PMetal hood, galvanized steel lever, top entry M20
  7
CONVERTER_11
 73
     1
 44
0.90036014405762
  0
MTEXT
  5
A2
330
4A
100
AcDbEntity
  8
1
 62
     7
100
AcDbMText
 10
32.60000000000014
 20
7.49999999999987
 30
0.0
 40
3.0
 41
0.0
 71
     4
 72
     1
  1
Radice
  7
CONVERTER_11
 73
     1
 44
1.32052821128451
  0
MTEXT
  5
A3
330
4A
100
AcDbEntity
  8
1
 62
     7
100
AcDbMText
 10
22.00000000000011
 20
7.49999999999987
 30
0.0
 40
3.0
 41
0.0
 71
     4
 72
     1
  1
Sign.
  7
CONVERTER_11
 73
     1
 44
1.32052821128451
  0
MTEXT
  5
A4
330
4A
100
AcDbEntity
  8
1
 62
     7
100
AcDbMText
 10
32.60000000000014
 20
12.49999999999987
 30
0.0
 40
3.0
 41
0.0
 71
     4
 72
     1
  1
02/07/14
  7
CONVERTER_11
 73
     1
 44
1.32052821128451
  0
MTEXT
  5
A5
330
4A
100
AcDbEntity
  8
1
 62
     7
100
AcDbMText
 10
22.00000000000011
 20
12.49999999999987
 30
0.0
 40
3.0
 41
0.0
 71
     4
 72
     1
  1
Date
  7
CONVERTER_11
 73
     1
 44
1.32052821128451
  0
MTEXT
  5
A6
330
4A
100
AcDbEntity
  8
1
 62
     7
100
AcDbMText
 10
16.0
 20
151.4999999999998
 30
0.0
 40
4.0
 41
0.0
 71
     5
 72
     1
  1
Diritti riservati      All rights reserved
  7
CONVERTER_11
 11
0.0
 21
1.0
 31
0.0
 73
     1
 44
1.32052821128451
  0
MTEXT
  5
A8
330
4A
100
AcDbEntity
  8
1
 62
     7
100
AcDbMText
 10
36.00000000000011
 20
17.49999999999994
 30
0.0
 40
2.5
 41
0.0
 71
     5
 72
     1
  1
dimensions in mm
  7
CONVERTER_12
 73
     1
 44
0.60024009603842
  0
HATCH
  5
A9
330
4A
100
AcDbEntity
  8
1
  6
Continuous
 62
     7
100
AcDbHatch
 10
0.0
 20
0.0
 30
0.0
210
0.0
220
0.0
230
1.0
  2
SOLID
 70
     1
 71
     1
 91
        1
 92
        1
 93
       14
 72
     2
 10
194.3429673554094
 20
14.92250016016737
 40
0.3333333333334166
 50
60.01836063113698
 51
180.0
 73
     1
 72
     1
 10
194.0096340220762
 20
14.92250016016737
 11
194.0096340220762
 21
10.07749983983263
 72
     2
 10
194.3429673554094
 20
10.07749983983263
 40
0.3333333333332007
 50
180.0
 51
299.981639368863
 73
     1
 72
     1
 10
194.5095415065727
 20
9.78877131114973
 11
195.8428748399059
 21
10.55800208038033
 72
     2
 10
195.6763006887428
 20
10.84673060906323
 40
0.3333333333333172
 50
299.9816393688334
 51
479.9816393688365
 73
     1
 72
     1
 10
195.5097265375796
 20
11.13545913774624
 11
194.6763006887428
 21
10.65463653264794
 72
     1
 10
194.6763006887428
 20
10.65463653264794
 11
194.6763006887428
 21
12.16666666666663
 72
     1
 10
194.6763006887428
 20
12.16666666666663
 11
195.6763006887428
 21
12.16666666666663
 72
     2
 10
195.6763006887428
 20
12.5
 40
0.3333333333333695
 50
270.0
 51
450.0
 73
     1
 72
     1
 10
195.6763006887428
 20
12.83333333333326
 11
194.6763006887428
 21
12.83333333333326
 72
     1
 10
194.6763006887428
 20
12.83333333333326
 11
194.6763006887428
 21
14.34536346735194
 72
     1
 10
194.6763006887428
 20
14.34536346735194
 11
195.5097265375796
 21
13.86454086225376
 72
     2
 10
195.6763006887428
 20
14.15326939093666
 40
0.3333333333333613
 50
240.018360631154
 51
420.0183606311564
 73
     1
 72
     1
 10
195.8428748399059
 20
14.44199791961944
 11
194.5095415065727
 21
15.21122868885027
 97
       14
330
8F
330
66
330
65
330
64
330
8E
330
63
330
62
330
61
330
8D
330
60
330
98
330
7E
330
99
330
67
 75
     0
 76
     1
 98
        1
 10
0.0
 20
0.0
  0
HATCH
  5
AA
330
4A
100
AcDbEntity
  8
1
  6
Continuous
 62
     7
100
AcDbHatch
 10
0.0
 20
0.0
 30
0.0
210
0.0
220
0.0
230
1.0
  2
SOLID
 70
     1
 71
     1
 91
        1
 92
        1
 93
        5
 72
     2
 10
187.6763006887428
 20
14.15326939093666
 40
0.3333333333333144
 50
0.0
 51
180.0
 73
     1
 72
     1
 10
187.3429673554094
 20
14.15326939093666
 11
187.3429673554094
 21
10.84673060906323
 72
     2
 10
187.6763006887428
 20
10.84673060906323
 40
0.3333333333333997
 50
180.0
 51
360.0
 73
     1
 72
     1
 10
188.0096340220761
 20
10.84673060906323
 11
188.0096340220761
 21
11.0392519172633
 72
     1
 10
188.0096340220761
 20
11.0392519172633
 11
188.0096340220761
 21
14.15326939093666
 97
        5
330
91
330
68
330
90
330
69
330
6A
 75
     0
 76
     1
 98
        1
 10
0.0
 20
0.0
  0
HATCH
  5
AB
330
4A
100
AcDbEntity
  8
1
  6
Continuous
 62
     7
100
AcDbHatch
 10
0.0
 20
0.0
 30
0.0
210
0.0
220
0.0
230
1.0
  2
SOLID
 70
     1
 71
     1
 91
        1
 92
        1
 93
        7
 72
     2
 10
189.0096340220761
 20
14.92250016016737
 40
0.333333333333286
 50
0.0
 51
180.0
 73
     1
 72
     1
 10
188.6763006887428
 20
14.92250016016737
 11
188.6763006887428
 21
10.27002114803258
 72
     2
 10
189.3429673554094
 20
10.2700211480327
 40
0.6666666666666003
 50
180.0000000000104
 51
240.0183606311601
 73
     1
 72
     1
 10
189.0098190530831
 20
9.692564090666906
 11
191.1763932042462
 21
8.442617464995806
 72
     2
 10
191.3429673554094
 20
8.731345993678701
 40
0.3333333333333567
 50
240.0183606311536
 51
420.0183606311367
 73
     1
 72
     1
 10
191.5095415065727
 20
9.020074522361597
 11
189.3429673554094
 21
10.2700211480327
 72
     1
 10
189.3429673554094
 20
10.2700211480327
 11
189.3429673554094
 21
14.92250016016737
 97
        7
330
93
330
6E
330
9C
330
6B
330
92
330
6C
330
6D
 75
     0
 76
     1
 98
        1
 10
0.0
 20
0.0
  0
HATCH
  5
AC
330
4A
100
AcDbEntity
  8
1
  6
Continuous
 62
     7
100
AcDbHatch
 10
0.0
 20
0.0
 30
0.0
210
0.0
220
0.0
230
1.0
  2
SOLID
 70
     1
 71
     1
 91
        1
 92
        1
 93
       16
 72
     2
 10
193.0780011429341
 20
15.73121731203457
 40
0.2649662124752865
 50
210.0000000000284
 51
360.0
 73
     0
 72
     1
 10
193.3429673554094
 20
15.73121731203457
 11
193.3429673554094
 21
9.308269070601796
 72
     2
 10
193.0096340220762
 20
9.308269070601796
 40
0.3333333333333997
 50
0.0
 51
180.0
 73
     0
 72
     1
 10
192.6763006887428
 20
9.308269070601796
 11
192.6763006887428
 21
12.5
 72
     1
 10
192.6763006887428
 20
12.5
 11
192.6763006887428
 21
14.23205080756884
 72
     1
 10
192.6763006887428
 20
14.23205080756884
 11
191.8206382560402
 21
12.75
 72
     2
 10
191.6763006887428
 20
12.83333333333326
 40
0.166666666666709
 50
29.99999999997686
 51
150.0000000000378
 73
     0
 72
     1
 10
191.5319631214453
 20
12.75
 11
190.6763006887428
 21
14.23205080756884
 72
     1
 10
190.6763006887428
 20
14.23205080756884
 11
190.6763006887428
 21
12.5
 72
     1
 10
190.6763006887428
 20
12.5
 11
190.6763006887428
 21
10.84758507263291
 72
     2
 10
190.3429673554094
 20
10.84758507263291
 40
0.333333333333286
 50
0.0
 51
180.0
 73
     0
 72
     1
 10
190.0096340220761
 20
10.84758507263291
 11
190.0096340220761
 21
12.5
 72
     1
 10
190.0096340220761
 20
12.5
 11
190.0096340220761
 21
15.73121731203457
 72
     2
 10
190.2746002345514
 20
15.73121731203457
 40
0.2649662124752854
 50
180.0
 51
329.9999999999808
 73
     0
 72
     1
 10
190.5040677056995
 20
15.86370041827229
 11
191.6763006887428
 21
13.83333333333326
 72
     1
 10
191.6763006887428
 20
13.83333333333326
 11
192.8485336717861
 21
15.86370041827229
 97
       16
330
74
330
97
330
75
330
73
330
96
330
72
330
7A
330
7B
330
9D
330
7C
330
7D
330
71
330
95
330
70
330
94
330
6F
 75
     0
 76
     1
 98
        1
 10
0.0
 20
0.0
  0
ENDBLK
  5
4C
330
4A
100
AcDbEntity
  8
0
100
AcDbBlockEnd
  0
BLOCK
  5
4F
330
4D
100
AcDbEntity
  8
0
100
AcDbBlockBegin
  2
A4
 70
     0
 10
210.0000000000001
 20
0.0
 30
0.0
  3
A4
  1

  0
INSERT
  5
4E
330
4D
100
AcDbEntity
  8
1
100
AcDbBlockReference
  2
_formato_A4
 10
210.0000000000001
 20
0.0
 30
0.0
  0
ENDBLK
  5
50
330
4D
100
AcDbEntity
  8
0
100
AcDbBlockEnd
  0
BLOCK
  5
36E
330
366
100
AcDbEntity
  8
0
100
AcDbBlockBegin
  2
*D3
 70
     1
 10
0.0
 20
0.0
 30
0.0
  3
*D3
  1

  0
LINE
  5
367
330
366
100
AcDbEntity
  8
1
  6
Continuous
 62
     2
100
AcDbLine
 10
158.4392057778209
 20
131.744603092351
 30
0.0
 11
158.4392057778209
 21
112.77260309235
 31
0.0
  0
LINE
  5
368
330
366
100
AcDbEntity
  8
1
  6
Continuous
 62
     2
100
AcDbLine
 10
143.9484760229551
 20
131.744603092351
 30
0.0
 11
159.4392057778209
 21
131.744603092351
 31
0.0
  0
LINE
  5
369
330
366
100
AcDbEntity
  8
1
  6
Continuous
 62
     2
100
AcDbLine
 10
143.9484760229551
 20
112.77260309235
 30
0.0
 11
159.4392057778209
 21
112.77260309235
 31
0.0
  0
SOLID
  5
36A
330
366
100
AcDbEntity
  8
1
 62
     2
100
AcDbTrace
 10
158.8341632705831
 20
128.744603092351
 30
0.0
 11
158.0442482850587
 21
128.744603092351
 31
0.0
 12
158.4392057778209
 22
131.744603092351
 32
0.0
 13
158.4392057778209
 23
131.744603092351
 33
0.0
  0
SOLID
  5
36B
330
366
100
AcDbEntity
  8
1
 62
     2
100
AcDbTrace
 10
158.0442482850587
 20
115.77260309235
 30
0.0
 11
158.8341632705831
 21
115.77260309235
 31
0.0
 12
158.4392057778209
 22
112.77260309235
 32
0.0
 13
158.4392057778209
 23
112.77260309235
 33
0.0
  0
MTEXT
  5
36D
330
366
100
AcDbEntity
  8
1
 62
     4
100
AcDbMText
 10
156.4392057778209
 20
118.3586030923505
 30
0.0
 40
3.0
 41
0.0
 71
     7
 72
     1
  1
M20
  7
CONVERTER_13
 11
0.0
 21
1.0
 31
0.0
 73
     1
 44
0.60024009603842
  0
ENDBLK
  5
36F
330
366
100
AcDbEntity
  8
0
100
AcDbBlockEnd
  0
BLOCK
  5
379
330
372
100
AcDbEntity
  8
0
100
AcDbBlockBegin
  2
*D4
 70
     1
 10
0.0
 20
0.0
 30
0.0
  3
*D4
  1

  0
LINE
  5
373
330
372
100
AcDbEntity
  8
1
  6
Continuous
 62
     2
100
AcDbLine
 10
76.43920577782092
 20
138.258603092351
 30
0.0
 11
76.43920577782092
 21
106.258603092351
 31
0.0
  0
LINE
  5
374
330
372
100
AcDbEntity
  8
1
  6
Continuous
 62
     2
100
AcDbLine
 10
89.93920577775121
 20
106.258603092351
 30
0.0
 11
75.43920577782092
 21
106.258603092351
 31
0.0
  0
LINE
  5
375
330
372
100
AcDbEntity
  8
1
  6
Continuous
 62
     2
100
AcDbLine
 10
89.93920577775121
 20
138.258603092351
 30
0.0
 11
75.43920577782092
 21
138.258603092351
 31
0.0
  0
SOLID
  5
376
330
372
100
AcDbEntity
  8
1
 62
     2
100
AcDbTrace
 10
76.8341632705831
 20
135.258603092351
 30
0.0
 11
76.04424828505873
 21
135.258603092351
 31
0.0
 12
76.43920577782092
 22
138.258603092351
 32
0.0
 13
76.43920577782092
 23
138.258603092351
 33
0.0
  0
SOLID
  5
377
330
372
100
AcDbEntity
  8
1
 62
     2
100
AcDbTrace
 10
76.04424828505873
 20
109.258603092351
 30
0.0
 11
76.8341632705831
 21
109.258603092351
 31
0.0
 12
76.43920577782092
 22
106.258603092351
 32
0.0
 13
76.43920577782092
 23
106.258603092351
 33
0.0
  0
MTEXT
  5
378
330
372
100
AcDbEntity
  8
1
 62
     4
100
AcDbMText
 10
74.43920577782092
 20
120.008603092351
 30
0.0
 40
3.0
 41
0.0
 71
     7
 72
     1
  1
32
  7
CONVERTER_13
 11
0.0
 21
1.0
 31
0.0
 73
     1
 44
0.60024009603842
  0
ENDBLK
  5
37A
330
372
100
AcDbEntity
  8
0
100
AcDbBlockEnd
  0
BLOCK
  5
384
330
37D
100
AcDbEntity
  8
0
100
AcDbBlockBegin
  2
*D5
 70
     1
 10
0.0
 20
0.0
 30
0.0
  3
*D5
  1

  0
LINE
  5
37E
330
37D
100
AcDbEntity
  8
1
  6
Continuous
 62
     2
100
AcDbLine
 10
158.4392057778209
 20
194.424023023747
 30
0.0
 11
158.4392057778209
 21
218.424023977421
 31
0.0
  0
LINE
  5
37F
330
37D
100
AcDbEntity
  8
1
  6
Continuous
 62
     2
100
AcDbLine
 10
142.6392055870859
 20
218.424023977421
 30
0.0
 11
159.4392057778209
 21
218.424023977421
 31
0.0
  0
LINE
  5
380
330
37D
100
AcDbEntity
  8
1
  6
Continuous
 62
     2
100
AcDbLine
 10
142.6392055870859
 20
194.424023023747
 30
0.0
 11
159.4392057778209
 21
194.424023023747
 31
0.0
  0
SOLID
  5
381
330
37D
100
AcDbEntity
  8
1
 62
     2
100
AcDbTrace
 10
158.0442482850587
 20
197.424023023747
 30
0.0
 11
158.8341632705831
 21
197.424023023747
 31
0.0
 12
158.4392057778209
 22
194.424023023747
 32
0.0
 13
158.4392057778209
 23
194.424023023747
 33
0.0
  0
SOLID
  5
382
330
37D
100
AcDbEntity
  8
1
 62
     2
100
AcDbTrace
 10
158.8341632705831
 20
215.424023977421
 30
0.0
 11
158.0442482850587
 21
215.424023977421
 31
0.0
 12
158.4392057778209
 22
218.424023977421
 32
0.0
 13
158.4392057778209
 23
218.424023977421
 33
0.0
  0
MTEXT
  5
383
330
37D
100
AcDbEntity
  8
1
 62
     4
100
AcDbMText
 10
156.4392057778209
 20
204.174023500584
 30
0.0
 40
3.0
 41
0.0
 71
     7
 72
     1
  1
24
  7
CONVERTER_13
 11
0.0
 21
1.0
 31
0.0
 73
     1
 44
0.60024009603842
  0
ENDBLK
  5
385
330
37D
100
AcDbEntity
  8
0
100
AcDbBlockEnd
  0
BLOCK
  5
38F
330
388
100
AcDbEntity
  8
0
100
AcDbBlockBegin
  2
*D6
 70
     1
 10
0.0
 20
0.0
 30
0.0
  3
*D6
  1

  0
LINE
  5
389
330
388
100
AcDbEntity
  8
1
  6
Continuous
 62
     2
100
AcDbLine
 10
66.43920577782094
 20
194.424023500584
 30
0.0
 11
66.43920577782094
 21
242.9240235005838
 31
0.0
  0
LINE
  5
38A
330
388
100
AcDbEntity
  8
1
  6
Continuous
 62
     2
100
AcDbLine
 10
91.93920577782094
 20
242.9240235005838
 30
0.0
 11
65.43920577782094
 21
242.9240235005838
 31
0.0
  0
LINE
  5
38B
330
388
100
AcDbEntity
  8
1
  6
Continuous
 62
     2
100
AcDbLine
 10
85.93920577782094
 20
194.424023500584
 30
0.0
 11
65.43920577782094
 21
194.424023500584
 31
0.0
  0
SOLID
  5
38C
330
388
100
AcDbEntity
  8
1
 62
     2
100
AcDbTrace
 10
66.04424828505876
 20
197.424023500584
 30
0.0
 11
66.83416327058313
 21
197.424023500584
 31
0.0
 12
66.43920577782094
 22
194.424023500584
 32
0.0
 13
66.43920577782094
 23
194.424023500584
 33
0.0
  0
SOLID
  5
38D
330
388
100
AcDbEntity
  8
1
 62
     2
100
AcDbTrace
 10
66.83416327058313
 20
239.9240235005838
 30
0.0
 11
66.04424828505876
 21
239.9240235005838
 31
0.0
 12
66.43920577782094
 22
242.9240235005838
 32
0.0
 13
66.43920577782094
 23
242.9240235005838
 33
0.0
  0
MTEXT
  5
38E
330
388
100
AcDbEntity
  8
1
 62
     4
100
AcDbMText
 10
64.13920577782093
 20
214.3990235005839
 30
0.0
 40
3.0
 41
0.0
 71
     7
 72
     1
  1
48,5
  7
CONVERTER_13
 11
0.0
 21
1.0
 31
0.0
 73
     1
 44
0.60024009603842
  0
ENDBLK
  5
390
330
388
100
AcDbEntity
  8
0
100
AcDbBlockEnd
  0
BLOCK
  5
39A
330
393
100
AcDbEntity
  8
0
100
AcDbBlockBegin
  2
*D7
 70
     1
 10
0.0
 20
0.0
 30
0.0
  3
*D7
  1

  0
LINE
  5
394
330
393
100
AcDbEntity
  8
1
  6
Continuous
 62
     2
100
AcDbLine
 10
86.4392057778209
 20
185.414454584918
 30
0.0
 11
143.4392057778209
 21
185.414454584918
 31
0.0
  0
LINE
  5
395
330
393
100
AcDbEntity
  8
1
  6
Continuous
 62
     2
100
AcDbLine
 10
143.4392057778209
 20
194.424023500584
 30
0.0
 11
143.4392057778209
 21
184.414454584918
 31
0.0
  0
LINE
  5
396
330
393
100
AcDbEntity
  8
1
  6
Continuous
 62
     2
100
AcDbLine
 10
86.4392057778209
 20
193.924023500584
 30
0.0
 11
86.4392057778209
 21
184.414454584918
 31
0.0
  0
SOLID
  5
397
330
393
100
AcDbEntity
  8
1
 62
     2
100
AcDbTrace
 10
89.4392057778209
 20
185.8094120776802
 30
0.0
 11
89.4392057778209
 21
185.0194970921558
 31
0.0
 12
86.4392057778209
 22
185.414454584918
 32
0.0
 13
86.4392057778209
 23
185.414454584918
 33
0.0
  0
SOLID
  5
398
330
393
100
AcDbEntity
  8
1
 62
     2
100
AcDbTrace
 10
140.4392057778209
 20
185.0194970921558
 30
0.0
 11
140.4392057778209
 21
185.8094120776802
 31
0.0
 12
143.4392057778209
 22
185.414454584918
 32
0.0
 13
143.4392057778209
 23
185.414454584918
 33
0.0
  0
MTEXT
  5
399
330
393
100
AcDbEntity
  8
1
 62
     4
100
AcDbMText
 10
112.6892057778209
 20
187.414454584918
 30
0.0
 40
3.0
 41
0.0
 71
     7
 72
     1
  1
57
  7
CONVERTER_13
 11
0.9999999999970619
 21
2.424068405545306E-6
 31
0.0
 73
     1
 44
0.60024009603842
  0
ENDBLK
  5
39B
330
393
100
AcDbEntity
  8
0
100
AcDbBlockEnd
  0
ENDSEC
  0
SECTION
  2
ENTITIES
  0
INSERT
  5
51
330
1F
100
AcDbEntity
  8
0
100
AcDbBlockReference
  2
A4
 10
210.0000000000001
 20
0.0
 30
0.0
  0
POINT
  5
AD
330
1F
100
AcDbEntity
  8
Bemaßungen_TC_020513_DIN_
 62
     7
100
AcDbPoint
 10
92.43920577782092
 20
242.9240235005839
 30
0.0
  0
POINT
  5
AE
330
1F
100
AcDbEntity
  8
Bemaßungen_TC_020513_DIN_
 62
     7
100
AcDbPoint
 10
92.43920577782092
 20
194.424023500584
 30
0.0
  0
POINT
  5
AF
330
1F
100
AcDbEntity
  8
Bemaßungen_TC_020513_DIN_
 62
     7
100
AcDbPoint
 10
132.7259074631059
 20
194.424023500584
 30
0.0
  0
POINT
  5
B0
330
1F
100
AcDbEntity
  8
Bemaßungen_TC_020513_DIN_
 62
     7
100
AcDbPoint
 10
132.7259074631059
 20
218.424023500584
 30
0.0
  0
POINT
  5
B1
330
1F
100
AcDbEntity
  8
Bemaßungen_TC_020513_DIN_
 62
     7
100
AcDbPoint
 10
93.19295796266942
 20
106.258603092351
 30
0.0
  0
POINT
  5
B2
330
1F
100
AcDbEntity
  8
Bemaßungen_TC_020513_DIN_
 62
     7
100
AcDbPoint
 10
93.19295796266942
 20
138.258603092351
 30
0.0
  0
POINT
  5
B3
330
1F
100
AcDbEntity
  8
Bemaßungen_TC_020513_DIN_
 62
     7
100
AcDbPoint
 10
143.4392057778209
 20
194.924023500584
 30
0.0
  0
POINT
  5
B4
330
1F
100
AcDbEntity
  8
Bemaßungen_TC_020513_DIN_
 62
     7
100
AcDbPoint
 10
86.43920577782092
 20
196.424023500584
 30
0.0
  0
LINE
  5
B5
330
1F
100
AcDbEntity
  8
1
  6
DOT_CENTER
 62
     2
100
AcDbLine
 10
95.43920577775123
 20
127.723603092354
 30
0.0
 11
95.43920577775123
 21
116.793603092354
 31
0.0
  0
LINE
  5
B6
330
1F
100
AcDbEntity
  8
1
  6
DOT_CENTER
 62
     2
100
AcDbLine
 10
100.9042057777512
 20
122.258603092354
 30
0.0
 11
89.97420577775125
 21
122.258603092354
 31
0.0
  0
LINE
  5
B7
330
1F
100
AcDbEntity
  8
1
  6
Continuous
 62
     4
100
AcDbLine
 10
156.2000000000002
 20
200.8
 30
0.0
 11
156.2000000000002
 21
202.7
 31
0.0
  0
LINE
  5
B8
330
1F
100
AcDbEntity
  8
1
  6
Continuous
 62
     4
100
AcDbLine
 10
153.8000000000001
 20
202.2
 30
0.0
 11
153.8000000000001
 21
200.3
 31
0.0
  0
LINE
  5
B9
330
1F
100
AcDbEntity
  8
1
  6
Continuous
 62
     4
100
AcDbLine
 10
153.3000000000001
 20
202.4916666666668
 30
0.0
 11
156.7000000000001
 21
200.5083333333332
 31
0.0
  0
LINE
  5
BA
330
1F
100
AcDbEntity
  8
1
  6
Continuous
 62
     4
100
AcDbLine
 10
156.2000000000002
 20
202.7
 30
0.0
 11
153.8000000000001
 21
202.7
 31
0.0
  0
LINE
  5
BB
330
1F
100
AcDbEntity
  8
1
  6
Continuous
 62
     4
100
AcDbLine
 10
156.2000000000002
 20
200.3
 30
0.0
 11
156.2000000000002
 21
200.8
 31
0.0
  0
LINE
  5
BC
330
1F
100
AcDbEntity
  8
1
  6
Continuous
 62
     4
100
AcDbLine
 10
153.8000000000001
 20
200.3
 30
0.0
 11
156.2000000000002
 21
200.3
 31
0.0
  0
LINE
  5
BD
330
1F
100
AcDbEntity
  8
1
  6
Continuous
 62
     4
100
AcDbLine
 10
153.8000000000001
 20
202.7
 30
0.0
 11
153.8000000000001
 21
202.2
 31
0.0
  0
LINE
  5
BE
330
1F
100
AcDbEntity
  8
1
  6
Continuous
 62
     2
100
AcDbLine
 10
143.4441640381081
 20
112.77260309235
 30
0.0
 11
143.4484760229551
 21
112.77260309235
 31
0.0
  0
LINE
  5
BF
330
1F
100
AcDbEntity
  8
1
  6
Continuous
 62
     2
100
AcDbLine
 10
143.4441640381081
 20
131.744603092351
 30
0.0
 11
143.4484760229551
 21
131.744603092351
 31
0.0
  0
LINE
  5
2B2
330
1F
100
AcDbEntity
  8
Sichtbare_Kanten_TC_020513_DIN_
  6
Continuous
 62
     7
100
AcDbLine
 10
82.09733054807481
 20
137.258603092355
 30
0.0
 11
82.09733054807481
 21
136.258603092355
 31
0.0
  0
LINE
  5
2B3
330
1F
100
AcDbEntity
  8
Sichtbare_Kanten_TC_020513_DIN_
  6
Continuous
 62
     7
100
AcDbLine
 10
89.9510499774247
 20
137.258603092356
 30
0.0
 11
82.1648797495896
 21
137.258603092355
 31
0.0
  0
LINE
  5
2B4
330
1F
100
AcDbEntity
  8
Sichtbare_Kanten_TC_020513_DIN_
  6
Continuous
 62
     7
100
AcDbLine
 10
82.1648797495896
 20
137.258603092355
 30
0.0
 11
82.09733054807481
 21
137.258603092355
 31
0.0
  0
LINE
  5
2B5
330
1F
100
AcDbEntity
  8
Sichtbare_Kanten_TC_020513_DIN_
  6
Continuous
 62
     7
100
AcDbLine
 10
82.1648797495896
 20
136.258603092355
 30
0.0
 11
82.09733054807481
 21
136.258603092355
 31
0.0
  0
LINE
  5
2B6
330
1F
100
AcDbEntity
  8
Sichtbare_Kanten_TC_020513_DIN_
  6
Continuous
 62
     7
100
AcDbLine
 10
89.9510499774247
 20
136.258603092356
 30
0.0
 11
82.1648797495896
 21
136.258603092355
 31
0.0
  0
LINE
  5
2B7
330
1F
100
AcDbEntity
  8
Sichtbare_Kanten_TC_020513_DIN_
  6
Continuous
 62
     7
100
AcDbLine
 10
89.9510499774247
 20
136.258603092356
 30
0.0
 11
103.9845604578491
 21
136.258603092357
 31
0.0
  0
LINE
  5
2B8
330
1F
100
AcDbEntity
  8
Sichtbare_Kanten_TC_020513_DIN_
  6
Continuous
 62
     7
100
AcDbLine
 10
89.9510499774247
 20
137.258603092356
 30
0.0
 11
104.2307623961021
 21
137.258603092357
 31
0.0
  0
LINE
  5
2B9
330
1F
100
AcDbEntity
  8
Sichtbare_Kanten_TC_020513_DIN_
  6
Continuous
 62
     7
100
AcDbLine
 10
104.2307623961021
 20
107.258603092357
 30
0.0
 11
105.9672441727711
 21
107.258603092354
 31
0.0
  0
LINE
  5
2BA
330
1F
100
AcDbEntity
  8
Sichtbare_Kanten_TC_020513_DIN_
  6
Continuous
 62
     7
100
AcDbLine
 10
105.9672441727711
 20
137.258603092354
 30
0.0
 11
104.2307623961021
 21
137.258603092357
 31
0.0
  0
LINE
  5
2BB
330
1F
100
AcDbEntity
  8
Sichtbare_Kanten_TC_020513_DIN_
  6
Continuous
 62
     7
100
AcDbLine
 10
82.09733054807481
 20
108.258603092355
 30
0.0
 11
82.09733054807481
 21
107.258603092355
 31
0.0
  0
LINE
  5
2BC
330
1F
100
AcDbEntity
  8
Sichtbare_Kanten_TC_020513_DIN_
  6
Continuous
 62
     7
100
AcDbLine
 10
89.9510499774247
 20
108.258603092356
 30
0.0
 11
82.1648797495896
 21
108.258603092355
 31
0.0
  0
LINE
  5
2BD
330
1F
100
AcDbEntity
  8
Sichtbare_Kanten_TC_020513_DIN_
  6
Continuous
 62
     7
100
AcDbLine
 10
82.1648797495896
 20
108.258603092355
 30
0.0
 11
82.09733054807481
 21
108.258603092355
 31
0.0
  0
LINE
  5
2BE
330
1F
100
AcDbEntity
  8
Sichtbare_Kanten_TC_020513_DIN_
  6
Continuous
 62
     7
100
AcDbLine
 10
82.1648797495896
 20
107.258603092355
 30
0.0
 11
82.09733054807481
 21
107.258603092355
 31
0.0
  0
LINE
  5
2BF
330
1F
100
AcDbEntity
  8
Sichtbare_Kanten_TC_020513_DIN_
  6
Continuous
 62
     7
100
AcDbLine
 10
89.9510499774247
 20
107.258603092356
 30
0.0
 11
82.1648797495896
 21
107.258603092355
 31
0.0
  0
LINE
  5
2C0
330
1F
100
AcDbEntity
  8
Sichtbare_Kanten_TC_020513_DIN_
  6
Continuous
 62
     7
100
AcDbLine
 10
89.9510499774247
 20
107.258603092356
 30
0.0
 11
104.2307623961021
 21
107.258603092357
 31
0.0
  0
LINE
  5
2C1
330
1F
100
AcDbEntity
  8
Sichtbare_Kanten_TC_020513_DIN_
  6
Continuous
 62
     7
100
AcDbLine
 10
89.9510499774247
 20
108.258603092356
 30
0.0
 11
103.9845604578491
 21
108.258603092357
 31
0.0
  0
LINE
  5
2C2
330
1F
100
AcDbEntity
  8
Sichtbare_Kanten_TC_020513_DIN_
  6
Continuous
 62
     7
100
AcDbLine
 10
106.9520519257831
 20
128.258603092354
 30
0.0
 11
106.9520519257831
 21
136.258603092354
 31
0.0
  0
LINE
  5
2C3
330
1F
100
AcDbEntity
  8
Sichtbare_Kanten_TC_020513_DIN_
  6
Continuous
 62
     7
100
AcDbLine
 10
106.9520519257831
 20
108.258603092354
 30
0.0
 11
106.9520519257831
 21
116.258603092354
 31
0.0
  0
LINE
  5
2C4
330
1F
100
AcDbEntity
  8
Sichtbare_Kanten_TC_020513_DIN_
  6
Continuous
 62
     7
100
AcDbLine
 10
105.2155701491141
 20
112.258603092357
 30
0.0
 11
105.2155701491141
 21
108.258603092357
 31
0.0
  0
LINE
  5
2C5
330
1F
100
AcDbEntity
  8
Sichtbare_Kanten_TC_020513_DIN_
  6
Continuous
 62
     7
100
AcDbLine
 10
105.2155701491141
 20
136.258603092357
 30
0.0
 11
105.2155701491141
 21
132.258603092357
 31
0.0
  0
LINE
  5
2C6
330
1F
100
AcDbEntity
  8
Sichtbare_Kanten_TC_020513_DIN_
  6
Continuous
 62
     7
100
AcDbLine
 10
104.2307623961021
 20
112.258603092357
 30
0.0
 11
104.2307623961021
 21
108.508603092357
 31
0.0
  0
LINE
  5
2C7
330
1F
100
AcDbEntity
  8
Sichtbare_Kanten_TC_020513_DIN_
  6
Continuous
 62
     7
100
AcDbLine
 10
104.2307623961021
 20
136.008603092357
 30
0.0
 11
104.2307623961021
 21
132.258603092357
 31
0.0
  0
LINE
  5
2C8
330
1F
100
AcDbEntity
  8
Sichtbare_Kanten_TC_020513_DIN_
  6
Continuous
 62
     7
100
AcDbLine
 10
104.0940321732121
 20
129.086818116378
 30
0.0
 11
104.0940321732121
 21
115.430388068337
 31
0.0
  0
LINE
  5
2C9
330
1F
100
AcDbEntity
  8
Sichtbare_Kanten_TC_020513_DIN_
  6
Continuous
 62
     7
100
AcDbLine
 10
109.5682129782641
 20
124.25860309236
 30
0.0
 11
109.5682129782641
 21
120.25860309236
 31
0.0
  0
LINE
  5
2CA
330
1F
100
AcDbEntity
  8
Sichtbare_Kanten_TC_020513_DIN_
  6
Continuous
 62
     7
100
AcDbLine
 10
106.3213753118101
 20
116.258603092359
 30
0.0
 11
104.4596655252371
 21
116.258603092358
 31
0.0
  0
LINE
  5
2CB
330
1F
100
AcDbEntity
  8
Sichtbare_Kanten_TC_020513_DIN_
  6
Continuous
 62
     7
100
AcDbLine
 10
110.2440833415241
 20
124.25860309236
 30
0.0
 11
110.2440833415241
 21
120.25860309236
 31
0.0
  0
LINE
  5
2CC
330
1F
100
AcDbEntity
  8
Sichtbare_Kanten_TC_020513_DIN_
  6
Continuous
 62
     7
100
AcDbLine
 10
104.4596655252371
 20
128.258603092358
 30
0.0
 11
106.3213753118101
 21
128.258603092359
 31
0.0
  0
LINE
  5
2CD
330
1F
100
AcDbEntity
  8
Sichtbare_Kanten_TC_020513_DIN_
  6
Continuous
 62
     7
100
AcDbLine
 10
106.3213753118101
 20
116.258603092359
 30
0.0
 11
106.9728147187131
 21
116.258603092359
 31
0.0
  0
LINE
  5
2CE
330
1F
100
AcDbEntity
  8
Sichtbare_Kanten_TC_020513_DIN_
  6
Continuous
 62
     7
100
AcDbLine
 10
106.9728147187131
 20
128.258603092359
 30
0.0
 11
106.3213753118101
 21
128.258603092359
 31
0.0
  0
LINE
  5
2CF
330
1F
100
AcDbEntity
  8
Sichtbare_Kanten_TC_020513_DIN_
  6
Continuous
 62
     7
100
AcDbLine
 10
106.9520519257831
 20
110.258603092353
 30
0.0
 11
132.7259074630359
 21
110.258603092353
 31
0.0
  0
LINE
  5
2D0
330
1F
100
AcDbEntity
  8
Sichtbare_Kanten_TC_020513_DIN_
  6
Continuous
 62
     7
100
AcDbLine
 10
86.43920577775123
 20
110.258603092353
 30
0.0
 11
104.2307623961021
 21
110.258603092353
 31
0.0
  0
LINE
  5
2D1
330
1F
100
AcDbEntity
  8
Sichtbare_Kanten_TC_020513_DIN_
  6
Continuous
 62
     7
100
AcDbLine
 10
86.43920577775123
 20
110.258603092353
 30
0.0
 11
86.43920577775123
 21
112.258603092354
 31
0.0
  0
LINE
  5
2D2
330
1F
100
AcDbEntity
  8
Sichtbare_Kanten_TC_020513_DIN_
  6
Continuous
 62
     7
100
AcDbLine
 10
86.43920577775123
 20
132.258603092354
 30
0.0
 11
86.43920577775123
 21
134.258603092353
 31
0.0
  0
LINE
  5
2D3
330
1F
100
AcDbEntity
  8
Sichtbare_Kanten_TC_020513_DIN_
  6
Continuous
 62
     7
100
AcDbLine
 10
104.2307623961021
 20
134.258603092353
 30
0.0
 11
86.43920577775123
 21
134.258603092353
 31
0.0
  0
LINE
  5
2D4
330
1F
100
AcDbEntity
  8
Sichtbare_Kanten_TC_020513_DIN_
  6
Continuous
 62
     7
100
AcDbLine
 10
132.7259074630359
 20
134.258603092353
 30
0.0
 11
106.9520519257831
 21
134.258603092353
 31
0.0
  0
LINE
  5
2D5
330
1F
100
AcDbEntity
  8
Sichtbare_Kanten_TC_020513_DIN_
  6
Continuous
 62
     7
100
AcDbLine
 10
94.43920577775123
 20
108.258603092351
 30
0.0
 11
94.43920577775123
 21
108.958603092351
 31
0.0
  0
LINE
  5
2D6
330
1F
100
AcDbEntity
  8
Sichtbare_Kanten_TC_020513_DIN_
  6
Continuous
 62
     7
100
AcDbLine
 10
90.43920577775123
 20
108.258603092351
 30
0.0
 11
90.43920577775123
 21
108.958603092351
 31
0.0
  0
LINE
  5
2D7
330
1F
100
AcDbEntity
  8
Sichtbare_Kanten_TC_020513_DIN_
  6
Continuous
 62
     7
100
AcDbLine
 10
90.43920577775123
 20
106.258603092351
 30
0.0
 11
90.43920577775123
 21
107.258603092351
 31
0.0
  0
LINE
  5
2D8
330
1F
100
AcDbEntity
  8
Sichtbare_Kanten_TC_020513_DIN_
  6
Continuous
 62
     7
100
AcDbLine
 10
95.43920577775123
 20
109.958603092351
 30
0.0
 11
95.43920577775123
 21
110.258603092351
 31
0.0
  0
LINE
  5
2D9
330
1F
100
AcDbEntity
  8
Sichtbare_Kanten_TC_020513_DIN_
  6
Continuous
 62
     7
100
AcDbLine
 10
89.43920577775123
 20
109.958603092351
 30
0.0
 11
89.43920577775123
 21
110.258603092351
 31
0.0
  0
LINE
  5
2DA
330
1F
100
AcDbEntity
  8
Sichtbare_Kanten_TC_020513_DIN_
  6
Continuous
 62
     7
100
AcDbLine
 10
92.0919094224173
 20
106.258603092351
 30
0.0
 11
90.43920577775123
 21
106.258603092351
 31
0.0
  0
LINE
  5
2DB
330
1F
100
AcDbEntity
  8
Sichtbare_Kanten_TC_020513_DIN_
  6
Continuous
 62
     7
100
AcDbLine
 10
94.43920577775123
 20
108.958603092351
 30
0.0
 11
95.43920577775123
 21
109.958603092351
 31
0.0
  0
LINE
  5
2DC
330
1F
100
AcDbEntity
  8
Sichtbare_Kanten_TC_020513_DIN_
  6
Continuous
 62
     7
100
AcDbLine
 10
90.43920577775123
 20
108.958603092351
 30
0.0
 11
89.43920577775123
 21
109.958603092351
 31
0.0
  0
LINE
  5
2DD
330
1F
100
AcDbEntity
  8
Sichtbare_Kanten_TC_020513_DIN_
  6
Continuous
 62
     7
100
AcDbLine
 10
89.43920577775123
 20
109.958603092351
 30
0.0
 11
95.43920577775123
 21
109.958603092351
 31
0.0
  0
LINE
  5
2DE
330
1F
100
AcDbEntity
  8
Sichtbare_Kanten_TC_020513_DIN_
  6
Continuous
 62
     7
100
AcDbLine
 10
94.43920577775123
 20
108.958603092351
 30
0.0
 11
90.43920577775123
 21
108.958603092351
 31
0.0
  0
LINE
  5
2DF
330
1F
100
AcDbEntity
  8
Sichtbare_Kanten_TC_020513_DIN_
  6
Continuous
 62
     7
100
AcDbLine
 10
95.43920577775123
 20
134.258603092351
 30
0.0
 11
95.43920577775123
 21
134.55860309235
 31
0.0
  0
LINE
  5
2E0
330
1F
100
AcDbEntity
  8
Sichtbare_Kanten_TC_020513_DIN_
  6
Continuous
 62
     7
100
AcDbLine
 10
89.43920577775123
 20
134.258603092351
 30
0.0
 11
89.43920577775123
 21
134.55860309235
 31
0.0
  0
LINE
  5
2E1
330
1F
100
AcDbEntity
  8
Sichtbare_Kanten_TC_020513_DIN_
  6
Continuous
 62
     7
100
AcDbLine
 10
90.43920577775123
 20
135.55860309235
 30
0.0
 11
89.43920577775123
 21
134.55860309235
 31
0.0
  0
LINE
  5
2E2
330
1F
100
AcDbEntity
  8
Sichtbare_Kanten_TC_020513_DIN_
  6
Continuous
 62
     7
100
AcDbLine
 10
94.43920577775123
 20
135.55860309235
 30
0.0
 11
95.43920577775123
 21
134.55860309235
 31
0.0
  0
LINE
  5
2E3
330
1F
100
AcDbEntity
  8
Sichtbare_Kanten_TC_020513_DIN_
  6
Continuous
 62
     7
100
AcDbLine
 10
94.43920577775123
 20
135.55860309235
 30
0.0
 11
94.43920577775123
 21
136.258603092351
 31
0.0
  0
LINE
  5
2E4
330
1F
100
AcDbEntity
  8
Sichtbare_Kanten_TC_020513_DIN_
  6
Continuous
 62
     7
100
AcDbLine
 10
90.43920577775123
 20
137.258603092351
 30
0.0
 11
90.43920577775123
 21
138.258603092351
 31
0.0
  0
LINE
  5
2E5
330
1F
100
AcDbEntity
  8
Sichtbare_Kanten_TC_020513_DIN_
  6
Continuous
 62
     7
100
AcDbLine
 10
90.43920577775123
 20
135.55860309235
 30
0.0
 11
90.43920577775123
 21
136.258603092351
 31
0.0
  0
LINE
  5
2E6
330
1F
100
AcDbEntity
  8
Sichtbare_Kanten_TC_020513_DIN_
  6
Continuous
 62
     7
100
AcDbLine
 10
95.43920577775123
 20
134.55860309235
 30
0.0
 11
89.43920577775123
 21
134.55860309235
 31
0.0
  0
LINE
  5
2E7
330
1F
100
AcDbEntity
  8
Sichtbare_Kanten_TC_020513_DIN_
  6
Continuous
 62
     7
100
AcDbLine
 10
92.0919094224173
 20
138.258603092351
 30
0.0
 11
90.43920577775123
 21
138.258603092351
 31
0.0
  0
LINE
  5
2E8
330
1F
100
AcDbEntity
  8
Sichtbare_Kanten_TC_020513_DIN_
  6
Continuous
 62
     7
100
AcDbLine
 10
94.43920577775123
 20
135.55860309235
 30
0.0
 11
90.43920577775123
 21
135.55860309235
 31
0.0
  0
LINE
  5
2E9
330
1F
100
AcDbEntity
  8
Sichtbare_Kanten_TC_020513_DIN_
  6
Continuous
 62
     7
100
AcDbLine
 10
95.39362903678784
 20
107.258603092351
 30
0.0
 11
95.39362903678784
 21
106.258603092351
 31
0.0
  0
LINE
  5
2EA
330
1F
100
AcDbEntity
  8
Sichtbare_Kanten_TC_020513_DIN_
  6
Continuous
 62
     7
100
AcDbLine
 10
95.39362903678784
 20
106.258603092351
 30
0.0
 11
94.29400650292143
 21
106.258603092351
 31
0.0
  0
LINE
  5
2EB
330
1F
100
AcDbEntity
  8
Sichtbare_Kanten_TC_020513_DIN_
  6
Continuous
 62
     7
100
AcDbLine
 10
94.29400650292143
 20
107.258603092351
 30
0.0
 11
94.29400650292143
 21
106.258603092351
 31
0.0
  0
LINE
  5
2EC
330
1F
100
AcDbEntity
  8
Sichtbare_Kanten_TC_020513_DIN_
  6
Continuous
 62
     7
100
AcDbLine
 10
92.0919094224173
 20
106.258603092351
 30
0.0
 11
94.29400650292143
 21
106.258603092351
 31
0.0
  0
LINE
  5
2ED
330
1F
100
AcDbEntity
  8
Sichtbare_Kanten_TC_020513_DIN_
  6
Continuous
 62
     7
100
AcDbLine
 10
95.39362903678784
 20
137.258603092351
 30
0.0
 11
95.39362903678784
 21
138.258603092351
 31
0.0
  0
LINE
  5
2EE
330
1F
100
AcDbEntity
  8
Sichtbare_Kanten_TC_020513_DIN_
  6
Continuous
 62
     7
100
AcDbLine
 10
95.39362903678784
 20
138.258603092351
 30
0.0
 11
94.29400650292143
 21
138.258603092351
 31
0.0
  0
LINE
  5
2EF
330
1F
100
AcDbEntity
  8
Sichtbare_Kanten_TC_020513_DIN_
  6
Continuous
 62
     7
100
AcDbLine
 10
94.29400650292143
 20
137.258603092351
 30
0.0
 11
94.29400650292143
 21
138.258603092351
 31
0.0
  0
LINE
  5
2F0
330
1F
100
AcDbEntity
  8
Sichtbare_Kanten_TC_020513_DIN_
  6
Continuous
 62
     7
100
AcDbLine
 10
92.0919094224173
 20
138.258603092351
 30
0.0
 11
94.29400650292143
 21
138.258603092351
 31
0.0
  0
LINE
  5
2F1
330
1F
100
AcDbEntity
  8
Sichtbare_Kanten_TC_020513_DIN_
  6
Continuous
 62
     7
100
AcDbLine
 10
86.43920577775123
 20
132.258603092354
 30
0.0
 11
86.43920577775123
 21
112.258603092354
 31
0.0
  0
LINE
  5
2F2
330
1F
100
AcDbEntity
  8
Sichtbare_Kanten_TC_020513_DIN_
  6
Continuous
 62
     7
100
AcDbLine
 10
143.4392057777509
 20
133.758603092351
 30
0.0
 11
142.1392057778229
 21
134.258603092323
 31
0.0
  0
LINE
  5
2F3
330
1F
100
AcDbEntity
  8
Sichtbare_Kanten_TC_020513_DIN_
  6
Continuous
 62
     7
100
AcDbLine
 10
143.4392057777509
 20
110.758603092351
 30
0.0
 11
142.1392057778229
 21
110.258603092378
 31
0.0
  0
LINE
  5
2F4
330
1F
100
AcDbEntity
  8
Sichtbare_Kanten_TC_020513_DIN_
  6
Continuous
 62
     7
100
AcDbLine
 10
142.1392055870159
 20
110.258602615513
 30
0.0
 11
132.7259060264689
 21
110.258602615516
 31
0.0
  0
LINE
  5
2F5
330
1F
100
AcDbEntity
  8
Sichtbare_Kanten_TC_020513_DIN_
  6
Continuous
 62
     7
100
AcDbLine
 10
132.7259060264689
 20
134.258603569191
 30
0.0
 11
142.1392055870159
 21
134.258603569188
 31
0.0
  0
LINE
  5
2F6
330
1F
100
AcDbEntity
  8
Sichtbare_Kanten_TC_020513_DIN_
  6
Continuous
 62
     7
100
AcDbLine
 10
143.4392057777509
 20
110.758603092351
 30
0.0
 11
143.4392057777509
 21
133.758603092351
 31
0.0
  0
LINE
  5
2F7
330
1F
100
AcDbEntity
  8
Sichtbare_Kanten_TC_020513_DIN_
  6
Continuous
 62
     7
100
AcDbLine
 10
125.4392057777509
 20
122.258603092354
 30
0.0
 11
124.4034859019599
 21
121.508603092354
 31
0.0
  0
LINE
  5
2F8
330
1F
100
AcDbEntity
  8
Sichtbare_Kanten_TC_020513_DIN_
  6
Continuous
 62
     7
100
AcDbLine
 10
124.4034859019599
 20
121.508603092354
 30
0.0
 11
127.0637251419929
 21
121.508603092354
 31
0.0
  0
LINE
  5
2F9
330
1F
100
AcDbEntity
  8
Sichtbare_Kanten_TC_020513_DIN_
  6
Continuous
 62
     7
100
AcDbLine
 10
127.0637251419929
 20
121.008603092354
 30
0.0
 11
123.6319941058169
 21
121.008603092354
 31
0.0
  0
LINE
  5
2FA
330
1F
100
AcDbEntity
  8
Sichtbare_Kanten_TC_020513_DIN_
  6
Continuous
 62
     7
100
AcDbLine
 10
123.4853671719369
 20
121.461088998681
 30
0.0
 11
124.5867021026579
 21
122.258603092354
 31
0.0
  0
LINE
  5
2FB
330
1F
100
AcDbEntity
  8
Sichtbare_Kanten_TC_020513_DIN_
  6
Continuous
 62
     7
100
AcDbLine
 10
124.5867021026579
 20
122.258603092354
 30
0.0
 11
123.4853671719369
 21
123.056117186027
 31
0.0
  0
LINE
  5
2FC
330
1F
100
AcDbEntity
  8
Sichtbare_Kanten_TC_020513_DIN_
  6
Continuous
 62
     7
100
AcDbLine
 10
123.6319941058169
 20
123.508603092354
 30
0.0
 11
128.2464174496859
 21
123.508603092354
 31
0.0
  0
LINE
  5
2FD
330
1F
100
AcDbEntity
  8
Sichtbare_Kanten_TC_020513_DIN_
  6
Continuous
 62
     7
100
AcDbLine
 10
128.2464174496859
 20
123.008603092354
 30
0.0
 11
124.4034859019599
 21
123.008603092354
 31
0.0
  0
LINE
  5
2FE
330
1F
100
AcDbEntity
  8
Sichtbare_Kanten_TC_020513_DIN_
  6
Continuous
 62
     7
100
AcDbLine
 10
124.4034859019599
 20
123.008603092354
 30
0.0
 11
125.4392057777509
 21
122.258603092354
 31
0.0
  0
LINE
  5
2FF
330
1F
100
AcDbEntity
  8
Sichtbare_Kanten_TC_020513_DIN_
  6
Continuous
 62
     7
100
AcDbLine
 10
124.2377633365859
 20
120.458603092354
 30
0.0
 11
127.4962572377659
 21
120.458603092354
 31
0.0
  0
LINE
  5
300
330
1F
100
AcDbEntity
  8
Sichtbare_Kanten_TC_020513_DIN_
  6
Continuous
 62
     7
100
AcDbLine
 10
127.4962572377659
 20
120.458603092354
 30
0.0
 11
128.6067941300959
 21
122.383533705726
 31
0.0
  0
LINE
  5
301
330
1F
100
AcDbEntity
  8
Sichtbare_Kanten_TC_020513_DIN_
  6
Continuous
 62
     7
100
AcDbLine
 10
129.0398869231209
 20
122.133672478982
 30
0.0
 11
127.8571946154279
 21
120.083672478982
 31
0.0
  0
LINE
  5
302
330
1F
100
AcDbEntity
  8
Sichtbare_Kanten_TC_020513_DIN_
  6
Continuous
 62
     7
100
AcDbLine
 10
127.6406482189159
 20
119.958603092354
 30
0.0
 11
124.2377633365859
 21
119.958603092354
 31
0.0
  0
LINE
  5
303
330
1F
100
AcDbEntity
  8
Sichtbare_Kanten_TC_020513_DIN_
  6
Continuous
 62
     7
100
AcDbLine
 10
125.9392057777509
 20
115.758603092354
 30
0.0
 11
122.1892057777509
 21
122.258603092354
 31
0.0
  0
LINE
  5
304
330
1F
100
AcDbEntity
  8
Sichtbare_Kanten_TC_020513_DIN_
  6
Continuous
 62
     7
100
AcDbLine
 10
122.1892057777509
 20
122.258603092354
 30
0.0
 11
125.9392057777509
 21
128.758603092354
 31
0.0
  0
LINE
  5
305
330
1F
100
AcDbEntity
  8
Sichtbare_Kanten_TC_020513_DIN_
  6
Continuous
 62
     7
100
AcDbLine
 10
125.9392057777509
 20
128.758603092354
 30
0.0
 11
129.6892057777509
 21
122.258603092354
 31
0.0
  0
LINE
  5
306
330
1F
100
AcDbEntity
  8
Sichtbare_Kanten_TC_020513_DIN_
  6
Continuous
 62
     7
100
AcDbLine
 10
129.6892057777509
 20
122.258603092354
 30
0.0
 11
125.9392057777509
 21
115.758603092354
 31
0.0
  0
LINE
  5
307
330
1F
100
AcDbEntity
  8
Sichtbare_Kanten_TC_020513_DIN_
  6
Continuous
 62
     7
100
AcDbLine
 10
122.4778275281319
 20
122.258603092354
 30
0.0
 11
125.9392057777509
 21
116.258880793014
 31
0.0
  0
LINE
  5
308
330
1F
100
AcDbEntity
  8
Sichtbare_Kanten_TC_020513_DIN_
  6
Continuous
 62
     7
100
AcDbLine
 10
125.9392057777509
 20
128.258325391694
 30
0.0
 11
122.4778275281319
 21
122.258603092354
 31
0.0
  0
LINE
  5
309
330
1F
100
AcDbEntity
  8
Sichtbare_Kanten_TC_020513_DIN_
  6
Continuous
 62
     7
100
AcDbLine
 10
129.4005840273699
 20
122.258603092354
 30
0.0
 11
125.9392057777509
 21
128.258325391694
 31
0.0
  0
LINE
  5
30A
330
1F
100
AcDbEntity
  8
Sichtbare_Kanten_TC_020513_DIN_
  6
Continuous
 62
     7
100
AcDbLine
 10
125.9392057777509
 20
116.258880793014
 30
0.0
 11
129.4005840273699
 21
122.258603092354
 31
0.0
  0
LINE
  5
30B
330
1F
100
AcDbEntity
  8
Sichtbare_Kanten_TC_020513_DIN_
  6
Continuous
 62
     7
100
AcDbLine
 10
124.8146864135089
 20
119.458603092354
 30
0.0
 11
127.0637251419929
 21
119.458603092354
 31
0.0
  0
LINE
  5
30C
330
1F
100
AcDbEntity
  8
Sichtbare_Kanten_TC_020513_DIN_
  6
Continuous
 62
     7
100
AcDbLine
 10
127.0637251419929
 20
118.958603092354
 30
0.0
 11
124.8146864135089
 21
118.958603092354
 31
0.0
  0
LINE
  5
30D
330
1F
100
AcDbEntity
  8
Sichtbare_Kanten_TC_020513_DIN_
  6
Continuous
 62
     7
100
AcDbLine
 10
123.9923707862279
 20
124.383533705726
 30
0.0
 11
124.5692938631509
 21
125.383533705726
 31
0.0
  0
LINE
  5
30E
330
1F
100
AcDbEntity
  8
Sichtbare_Kanten_TC_020513_DIN_
  6
Continuous
 62
     7
100
AcDbLine
 10
125.0023866561749
 20
125.133672478982
 30
0.0
 11
124.6417697023509
 21
124.508603092354
 31
0.0
  0
LINE
  5
30F
330
1F
100
AcDbEntity
  8
Sichtbare_Kanten_TC_020513_DIN_
  6
Continuous
 62
     7
100
AcDbLine
 10
124.6417697023509
 20
124.508603092354
 30
0.0
 11
125.6892057777509
 21
124.508603092354
 31
0.0
  0
LINE
  5
310
330
1F
100
AcDbEntity
  8
Sichtbare_Kanten_TC_020513_DIN_
  6
Continuous
 62
     7
100
AcDbLine
 10
125.6892057777509
 20
124.508603092354
 30
0.0
 11
125.6892057777509
 21
125.258603092354
 31
0.0
  0
LINE
  5
311
330
1F
100
AcDbEntity
  8
Sichtbare_Kanten_TC_020513_DIN_
  6
Continuous
 62
     7
100
AcDbLine
 10
126.1892057777509
 20
125.258603092354
 30
0.0
 11
126.1892057777509
 21
124.508603092354
 31
0.0
  0
LINE
  5
312
330
1F
100
AcDbEntity
  8
Sichtbare_Kanten_TC_020513_DIN_
  6
Continuous
 62
     7
100
AcDbLine
 10
126.1892057777509
 20
124.508603092354
 30
0.0
 11
127.2366418531509
 21
124.508603092354
 31
0.0
  0
LINE
  5
313
330
1F
100
AcDbEntity
  8
Sichtbare_Kanten_TC_020513_DIN_
  6
Continuous
 62
     7
100
AcDbLine
 10
127.2366418531509
 20
124.508603092354
 30
0.0
 11
126.8760248993269
 21
125.133672478982
 31
0.0
  0
LINE
  5
314
330
1F
100
AcDbEntity
  8
Sichtbare_Kanten_TC_020513_DIN_
  6
Continuous
 62
     7
100
AcDbLine
 10
127.309117692352
 20
125.383533705726
 30
0.0
 11
127.8860407692749
 21
124.383533705726
 31
0.0
  0
LINE
  5
315
330
1F
100
AcDbEntity
  8
Sichtbare_Kanten_TC_020513_DIN_
  6
Continuous
 62
     7
100
AcDbLine
 10
127.6694943727619
 20
124.008603092354
 30
0.0
 11
124.2089171827399
 21
124.008603092354
 31
0.0
  0
LINE
  5
316
330
1F
100
AcDbEntity
  8
Sichtbare_Kanten_TC_020513_DIN_
  6
Continuous
 62
     7
100
AcDbLine
 10
104.3449250221501
 20
216.646735923185
 30
0.0
 11
105.5000386150321
 21
210.095761204282
 31
0.0
  0
LINE
  5
317
330
1F
100
AcDbEntity
  8
Sichtbare_Kanten_TC_020513_DIN_
  6
Continuous
 62
     7
100
AcDbLine
 10
104.1878741148841
 20
207.441768297683
 30
0.0
 11
94.50894456610922
 21
202.428253068207
 31
0.0
  0
LINE
  5
318
330
1F
100
AcDbEntity
  8
Sichtbare_Kanten_TC_020513_DIN_
  6
Continuous
 62
     7
100
AcDbLine
 10
91.65778897831973
 20
210.855658389139
 30
0.0
 11
93.62740448434408
 21
211.202954744473
 31
0.0
  0
LINE
  5
319
330
1F
100
AcDbEntity
  8
Sichtbare_Kanten_TC_020513_DIN_
  6
Continuous
 62
     7
100
AcDbLine
 10
93.62740448434408
 20
211.202954744473
 30
0.0
 11
91.9777467965082
 21
220.558628398089
 31
0.0
  0
LINE
  5
31A
330
1F
100
AcDbEntity
  8
Sichtbare_Kanten_TC_020513_DIN_
  6
Continuous
 62
     7
100
AcDbLine
 10
88.83414075858053
 20
220.345571863355
 30
0.0
 11
82.29797990653708
 21
221.661725385804
 31
0.0
  0
LINE
  5
31B
330
1F
100
AcDbEntity
  8
Sichtbare_Kanten_TC_020513_DIN_
  6
Continuous
 62
     7
100
AcDbLine
 10
96.0596810910306
 20
206.046984369406
 30
0.0
 11
93.35908968372678
 21
204.648125530639
 31
0.0
  0
LINE
  5
31C
330
1F
100
AcDbEntity
  8
Sichtbare_Kanten_TC_020513_DIN_
  6
Continuous
 62
     7
100
AcDbLine
 10
95.53873655802983
 20
209.001407628443
 30
0.0
 11
96.0596810910306
 21
206.046984369406
 31
0.0
  0
LINE
  5
31D
330
1F
100
AcDbEntity
  8
Sichtbare_Kanten_TC_020513_DIN_
  6
Continuous
 62
     7
100
AcDbLine
 10
94.29400650299112
 20
208.781928136041
 30
0.0
 11
95.53873655802983
 21
209.001407628443
 31
0.0
  0
LINE
  5
31E
330
1F
100
AcDbEntity
  8
Sichtbare_Kanten_TC_020513_DIN_
  6
Continuous
 62
     7
100
AcDbLine
 10
89.95104997749445
 20
226.293826738495
 30
0.0
 11
104.2307623961711
 21
228.811725314665
 31
0.0
  0
LINE
  5
31F
330
1F
100
AcDbEntity
  8
Sichtbare_Kanten_TC_020513_DIN_
  6
Continuous
 62
     7
100
AcDbLine
 10
106.9520519258531
 20
219.13729596221
 30
0.0
 11
105.9672441728411
 21
218.963647784543
 31
0.0
  0
LINE
  5
320
330
1F
100
AcDbEntity
  8
Sichtbare_Kanten_TC_020513_DIN_
  6
Continuous
 62
     7
100
AcDbLine
 10
104.2307623961711
 20
228.811725314665
 30
0.0
 11
105.2155701491842
 21
228.985373492332
 31
0.0
  0
LINE
  5
321
330
1F
100
AcDbEntity
  8
Sichtbare_Kanten_TC_020513_DIN_
  6
Continuous
 62
     7
100
AcDbLine
 10
106.9520519258531
 20
219.13729596221
 30
0.0
 11
105.2155701491842
 21
228.985373492332
 31
0.0
  0
LINE
  5
322
330
1F
100
AcDbEntity
  8
Sichtbare_Kanten_TC_020513_DIN_
  6
Continuous
 62
     7
100
AcDbLine
 10
110.2440833415941
 20
237.849703839137
 30
0.0
 11
109.5682129783331
 21
238.655174772681
 31
0.0
  0
LINE
  5
323
330
1F
100
AcDbEntity
  8
Sichtbare_Kanten_TC_020513_DIN_
  6
Continuous
 62
     7
100
AcDbLine
 10
86.43920577782092
 20
216.424023500584
 30
0.0
 11
86.43920577782092
 21
196.424023500584
 31
0.0
  0
LINE
  5
324
330
1F
100
AcDbEntity
  8
Sichtbare_Kanten_TC_020513_DIN_
  6
Continuous
 62
     7
100
AcDbLine
 10
95.39362903685753
 20
206.944968033585
 30
0.0
 11
94.40882128384533
 21
206.771319855918
 31
0.0
  0
LINE
  5
325
330
1F
100
AcDbEntity
  8
Sichtbare_Kanten_TC_020513_DIN_
  6
Continuous
 62
     7
100
AcDbLine
 10
92.09190942248699
 20
208.393639006608
 30
0.0
 11
94.29400650299112
 21
208.781928136041
 31
0.0
  0
LINE
  5
326
330
1F
100
AcDbEntity
  8
Sichtbare_Kanten_TC_020513_DIN_
  6
Continuous
 62
     7
100
AcDbLine
 10
86.43920577782092
 20
194.424023500584
 30
0.0
 11
132.7259074631059
 21
194.424023500584
 31
0.0
  0
LINE
  5
327
330
1F
100
AcDbEntity
  8
Sichtbare_Kanten_TC_020513_DIN_
  6
Continuous
 62
     7
100
AcDbLine
 10
86.43920577782092
 20
216.424023500584
 30
0.0
 11
86.43920577782092
 21
218.424023500584
 31
0.0
  0
LINE
  5
328
330
1F
100
AcDbEntity
  8
Sichtbare_Kanten_TC_020513_DIN_
  6
Continuous
 62
     7
100
AcDbLine
 10
86.43920577782092
 20
194.424023500584
 30
0.0
 11
86.43920577782092
 21
196.424023500584
 31
0.0
  0
LINE
  5
329
330
1F
100
AcDbEntity
  8
Sichtbare_Kanten_TC_020513_DIN_
  6
Continuous
 62
     7
100
AcDbLine
 10
92.3541352330908
 20
218.424023500584
 30
0.0
 11
86.43920577782092
 21
218.424023500584
 31
0.0
  0
LINE
  5
32A
330
1F
100
AcDbEntity
  8
Sichtbare_Kanten_TC_020513_DIN_
  6
Continuous
 62
     7
100
AcDbLine
 10
132.7259074631059
 20
218.424023500584
 30
0.0
 11
104.9162826460881
 21
218.424023500584
 31
0.0
  0
LINE
  5
32B
330
1F
100
AcDbEntity
  8
Sichtbare_Kanten_TC_020513_DIN_
  6
Continuous
 62
     7
100
AcDbLine
 10
143.4392057778209
 20
217.924023500584
 30
0.0
 11
142.1392057778929
 21
218.424023500556
 31
0.0
  0
LINE
  5
32C
330
1F
100
AcDbEntity
  8
Sichtbare_Kanten_TC_020513_DIN_
  6
Continuous
 62
     7
100
AcDbLine
 10
143.4392057778209
 20
194.924023500584
 30
0.0
 11
142.1392057778929
 21
194.424023500612
 31
0.0
  0
LINE
  5
32D
330
1F
100
AcDbEntity
  8
Sichtbare_Kanten_TC_020513_DIN_
  6
Continuous
 62
     7
100
AcDbLine
 10
142.1392055870859
 20
194.424023023747
 30
0.0
 11
132.7259060265389
 21
194.424023023747
 31
0.0
  0
LINE
  5
32E
330
1F
100
AcDbEntity
  8
Sichtbare_Kanten_TC_020513_DIN_
  6
Continuous
 62
     7
100
AcDbLine
 10
143.4392057778209
 20
194.924023500584
 30
0.0
 11
143.4392057778209
 21
217.924023500584
 31
0.0
  0
LINE
  5
32F
330
1F
100
AcDbEntity
  8
Sichtbare_Kanten_TC_020513_DIN_
  6
Continuous
 62
     7
100
AcDbLine
 10
132.7259060265389
 20
218.424023977421
 30
0.0
 11
142.1392055870859
 21
218.424023977421
 31
0.0
  0
ARC
  5
330
330
1F
100
AcDbEntity
  8
Stich_1-Linien_TC_020513_DIN_
  6
DASHED
 62
     2
100
AcDbCircle
 10
92.43920577782092
 20
206.424023500584
 30
0.0
 40
36.49999999999989
100
AcDbArc
 50
90.0
 51
115.9990449145532
  0
ARC
  5
331
330
1F
100
AcDbEntity
  8
Stich_1-Linien_TC_020513_DIN_
  6
DASHED
 62
     2
100
AcDbCircle
 10
92.43920577782092
 20
206.424023500584
 30
0.0
 40
36.49999999999951
100
AcDbArc
 50
54.40308180413362
 51
90.0
  0
ARC
  5
332
330
1F
100
AcDbEntity
  8
Sichtbare_Kanten_TC_020513_DIN_
  6
Continuous
 62
     7
100
AcDbCircle
 10
127.0637251419929
 20
121.258603092354
 30
0.0
 40
0.25
100
AcDbArc
 50
270.0
 51
90.0
  0
ARC
  5
333
330
1F
100
AcDbEntity
  8
Sichtbare_Kanten_TC_020513_DIN_
  6
Continuous
 62
     7
100
AcDbCircle
 10
123.6319941058169
 20
121.258603092354
 30
0.0
 40
0.2500000000002436
100
AcDbArc
 50
125.9095761771223
 51
270.0
  0
ARC
  5
334
330
1F
100
AcDbEntity
  8
Sichtbare_Kanten_TC_020513_DIN_
  6
Continuous
 62
     7
100
AcDbCircle
 10
123.6319941058169
 20
123.258603092354
 30
0.0
 40
0.25
100
AcDbArc
 50
90.0
 51
234.0904238228757
  0
ARC
  5
335
330
1F
100
AcDbEntity
  8
Sichtbare_Kanten_TC_020513_DIN_
  6
Continuous
 62
     7
100
AcDbCircle
 10
128.2464174496859
 20
123.258603092354
 30
0.0
 40
0.25
100
AcDbArc
 50
270.0
 51
90.0
  0
ARC
  5
336
330
1F
100
AcDbEntity
  8
Sichtbare_Kanten_TC_020513_DIN_
  6
Continuous
 62
     7
100
AcDbCircle
 10
124.2377633365859
 20
120.208603092354
 30
0.0
 40
0.25
100
AcDbArc
 50
90.0
 51
270.0
  0
ARC
  5
337
330
1F
100
AcDbEntity
  8
Sichtbare_Kanten_TC_020513_DIN_
  6
Continuous
 62
     7
100
AcDbCircle
 10
128.8233405266089
 20
122.258603092354
 30
0.0
 40
0.2499999999996674
100
AcDbArc
 50
330.0183606312145
 51
150.0183606313256
  0
ARC
  5
338
330
1F
100
AcDbEntity
  8
Sichtbare_Kanten_TC_020513_DIN_
  6
Continuous
 62
     7
100
AcDbCircle
 10
127.6406482189159
 20
120.208603092354
 30
0.0
 40
0.25
100
AcDbArc
 50
270.0
 51
330.0183606312116
  0
ARC
  5
339
330
1F
100
AcDbEntity
  8
Sichtbare_Kanten_TC_020513_DIN_
  6
Continuous
 62
     7
100
AcDbCircle
 10
127.0637251419929
 20
119.208603092354
 30
0.0
 40
0.25
100
AcDbArc
 50
270.0
 51
90.0
  0
ARC
  5
33A
330
1F
100
AcDbEntity
  8
Sichtbare_Kanten_TC_020513_DIN_
  6
Continuous
 62
     7
100
AcDbCircle
 10
124.8146864135089
 20
119.208603092354
 30
0.0
 40
0.25
100
AcDbArc
 50
90.0
 51
270.0
  0
ARC
  5
33B
330
1F
100
AcDbEntity
  8
Sichtbare_Kanten_TC_020513_DIN_
  6
Continuous
 62
     7
100
AcDbCircle
 10
124.2089171827399
 20
124.258603092354
 30
0.0
 40
0.2499999999996745
100
AcDbArc
 50
150.0183606312116
 51
270.0
  0
ARC
  5
33C
330
1F
100
AcDbEntity
  8
Sichtbare_Kanten_TC_020513_DIN_
  6
Continuous
 62
     7
100
AcDbCircle
 10
124.7858402596629
 20
125.258603092354
 30
0.0
 40
0.2499999999996674
100
AcDbArc
 50
330.0183606312145
 51
150.0183606312116
  0
ARC
  5
33D
330
1F
100
AcDbEntity
  8
Sichtbare_Kanten_TC_020513_DIN_
  6
Continuous
 62
     7
100
AcDbCircle
 10
125.9392057777509
 20
125.258603092354
 30
0.0
 40
0.25
100
AcDbArc
 50
0.0
 51
180.0
  0
ARC
  5
33E
330
1F
100
AcDbEntity
  8
Sichtbare_Kanten_TC_020513_DIN_
  6
Continuous
 62
     7
100
AcDbCircle
 10
127.0925712958389
 20
125.258603092354
 30
0.0
 40
0.2500000000004164
100
AcDbArc
 50
29.98163851512851
 51
209.9816393687855
  0
ARC
  5
33F
330
1F
100
AcDbEntity
  8
Sichtbare_Kanten_TC_020513_DIN_
  6
Continuous
 62
     7
100
AcDbCircle
 10
127.6694943727619
 20
124.258603092354
 30
0.0
 40
0.25
100
AcDbArc
 50
270.0
 51
29.98163936867443
  0
ARC
  5
340
330
1F
100
AcDbEntity
  8
Sichtbare_Kanten_TC_020513_DIN_
  6
Continuous
 62
     7
100
AcDbCircle
 10
106.3145405281751
 20
216.994032278519
 30
0.0
 40
1.999999999999626
100
AcDbArc
 50
100.0000000000058
 51
190.0000000000013
  0
ARC
  5
341
330
1F
100
AcDbEntity
  8
Sichtbare_Kanten_TC_020513_DIN_
  6
Continuous
 62
     7
100
AcDbCircle
 10
103.0380192325011
 20
209.661640760114
 30
0.0
 40
2.499999999999896
100
AcDbArc
 50
297.3833618965846
 51
10.00000000001336
  0
ARC
  5
342
330
1F
100
AcDbEntity
  8
Sichtbare_Kanten_TC_020513_DIN_
  6
Continuous
 62
     7
100
AcDbCircle
 10
92.43920577782092
 20
206.424023500584
 30
0.0
 40
4.500000000000044
100
AcDbArc
 50
99.9999999999999
 51
297.3833618965651
  0
ARC
  5
343
330
1F
100
AcDbEntity
  8
Sichtbare_Kanten_TC_020513_DIN_
  6
Continuous
 62
     7
100
AcDbCircle
 10
90.992939043496
 20
220.384980220422
 30
0.0
 40
1.000000000000013
100
AcDbArc
 50
10.00000000000502
 51
148.18968510424
  0
ARC
  5
344
330
1F
100
AcDbEntity
  8
Sichtbare_Kanten_TC_020513_DIN_
  6
Continuous
 62
     7
100
AcDbCircle
 10
89.08089396661762
 20
221.570975002866
 30
0.0
 40
1.250000000000006
100
AcDbArc
 50
258.6148908690811
 51
328.1896851042096
  0
ARC
  5
345
330
1F
100
AcDbEntity
  8
Sichtbare_Kanten_TC_020513_DIN_
  6
Continuous
 62
     7
100
AcDbCircle
 10
82.3473305481445
 20
221.906806013706
 30
0.0
 40
0.2500000000003684
100
AcDbArc
 50
136.8698976457311
 51
258.6148908690713
  0
ARC
  5
346
330
1F
100
AcDbEntity
  8
Sichtbare_Kanten_TC_020513_DIN_
  6
Continuous
 62
     7
100
AcDbCircle
 10
92.38212446483152
 20
212.506518196324
 30
0.0
 40
14.00000000000008
100
AcDbArc
 50
100.0000000000001
 51
136.8698976458426
  0
ARC
  5
347
330
1F
100
AcDbEntity
  8
Sichtbare_Kanten_TC_020513_DIN_
  6
Continuous
 62
     7
100
AcDbCircle
 10
113.0940321732811
 20
230.374558913668
 30
0.0
 40
9.00000000000022
100
AcDbArc
 50
138.8089184577632
 51
163.6122000387554
  0
ARC
  5
348
330
1F
100
AcDbEntity
  8
Sichtbare_Kanten_TC_020513_DIN_
  6
Continuous
 62
     7
100
AcDbCircle
 10
113.0940321732811
 20
230.374558913668
 30
0.0
 40
8.000000000000302
100
AcDbArc
 50
139.9205326820648
 51
160.0000000000018
  0
ARC
  5
349
330
1F
100
AcDbEntity
  8
Sichtbare_Kanten_TC_020513_DIN_
  6
Continuous
 62
     7
100
AcDbCircle
 10
92.43920577782092
 20
206.424023500584
 30
0.0
 40
1.999999999999586
100
AcDbArc
 50
100.0000000000039
 51
10.00000000000342
  0
ARC
  5
34A
330
1F
100
AcDbEntity
  8
Sichtbare_Kanten_TC_020513_DIN_
  6
Continuous
 62
     7
100
AcDbCircle
 10
92.43920577782092
 20
206.424023500584
 30
0.0
 40
2.999999999999881
100
AcDbArc
 50
345.5730470007948
 51
10.00000000000395
  0
ARC
  5
34B
330
1F
100
AcDbEntity
  8
Sichtbare_Kanten_TC_020513_DIN_
  6
Continuous
 62
     7
100
AcDbCircle
 10
92.43920577782092
 20
206.424023500584
 30
0.0
 40
3.000000000000029
100
AcDbArc
 50
10.00000000000395
 51
51.81031489578343
  0
CIRCLE
  5
34C
330
1F
100
AcDbEntity
  8
Sichtbare_Kanten_TC_020513_DIN_
  6
Continuous
 62
     7
100
AcDbCircle
 10
95.43920577775123
 20
122.258603092354
 30
0.0
 40
1.649999999999977
  0
CIRCLE
  5
34D
330
1F
100
AcDbEntity
  8
Sichtbare_Kanten_TC_020513_DIN_
  6
Continuous
 62
     7
100
AcDbCircle
 10
95.43920577775123
 20
122.258603092354
 30
0.0
 40
3.149999999999977
  0
SPLINE
  5
34E
330
1F
100
AcDbEntity
  8
Sichtbare_Kanten_TC_020513_DIN_
  6
Continuous
 62
     7
100
AcDbSpline
210
0.0
220
0.0
230
1.0
 70
     8
 71
     3
 72
    21
 73
    17
 74
    15
 42
0.000000001
 43
0.0000000001
 44
0.00000001
 40
0.0
 40
0.0
 40
0.0
 40
0.0
 40
0.1742136269540517
 40
0.3484268695474418
 40
0.435428389987175
 40
0.5224306454303911
 40
0.6092349658333693
 40
0.6960386157482163
 40
0.7826173184401517
 40
0.8691956542555456
 40
0.9555480283799096
 40
1.041900468470278
 40
1.128054290404576
 40
1.214206920375441
 40
1.385969896753923
 40
1.557732456108667
 40
1.557732456108667
 40
1.557732456108667
 40
1.557732456108667
 10
105.2155701491141
 20
136.258603092357
 30
0.0
 10
105.2126926415392
 20
136.3167408210159
 30
0.0
 10
105.2069376181721
 20
136.4330161488065
 30
0.0
 10
105.1681756502992
 20
136.5741160430994
 30
0.0
 10
105.1244907915954
 20
136.6816996009037
 30
0.0
 10
105.0847474298371
 20
136.7591680374229
 30
0.0
 10
105.0385334394778
 20
136.8328451759085
 30
0.0
 10
104.9861880950721
 20
136.9021360344427
 30
0.0
 10
104.9280622120848
 20
136.9665498446837
 30
0.0
 10
104.8646622093346
 20
137.0255605188134
 30
0.0
 10
104.7963981289868
 20
137.0787511101162
 30
0.0
 10
104.7238655798597
 20
137.1256790418351
 30
0.0
 10
104.6475374130153
 20
137.1660689102511
 30
0.0
 10
104.541712266389
 20
137.210390602869
 30
0.0
 10
104.4027347845912
 20
137.2498103095982
 30
0.0
 10
104.2880864796392
 20
137.2556721719771
 30
0.0
 10
104.2307623961021
 20
137.258603092357
 30
0.0
 11
105.2155701491141
 21
136.258603092357
 31
0.0
 11
105.2006220969346
 21
136.4321742422973
 31
0.0
 11
105.1561789745004
 21
136.6006232356826
 31
0.0
 11
105.123319313734
 21
136.681180714391
 31
0.0
 11
105.0836309280543
 21
136.7586030923569
 31
0.0
 11
105.0374980146559
 21
136.8321336605057
 31
0.0
 11
104.9851689028376
 21
136.9013907020439
 31
0.0
 11
104.9271655158463
 21
136.9656672838145
 31
0.0
 11
104.8637846176614
 21
137.0246475354765
 31
0.0
 11
104.7956675541819
 21
137.0777210532708
 31
0.0
 11
104.7231662726082
 21
137.1246284961419
 31
0.0
 11
104.6469995846883
 21
137.1648915910284
 31
0.0
 11
104.5675864849356
 21
137.1982957131434
 31
0.0
 11
104.4018505237913
 21
137.2433968430948
 31
0.0
 11
104.2307623961021
 21
137.258603092357
 31
0.0
  0
SPLINE
  5
34F
330
1F
100
AcDbEntity
  8
Sichtbare_Kanten_TC_020513_DIN_
  6
Continuous
 62
     7
100
AcDbSpline
210
0.0
220
0.0
230
1.0
 70
     8
 71
     3
 72
    21
 73
    17
 74
    15
 42
0.000000001
 43
0.0000000001
 44
0.00000001
 40
0.0
 40
0.0
 40
0.0
 40
0.0
 40
0.1742136269543644
 40
0.3484268695479433
 40
0.4354283899875185
 40
0.5224306454305576
 40
0.6092349658334472
 40
0.6960386157482715
 40
0.7826173184401783
 40
0.8691956542555737
 40
0.9555480283799377
 40
1.041900468470322
 40
1.128054290404594
 40
1.214206920375498
 40
1.385969896754007
 40
1.557732456108683
 40
1.557732456108683
 40
1.557732456108683
 40
1.557732456108683
 10
106.9520519257831
 20
136.258603092354
 30
0.0
 10
106.9491744182081
 20
136.316740821013
 30
0.0
 10
106.9434193948411
 20
136.4330161488038
 30
0.0
 10
106.9046574269683
 20
136.5741160430968
 30
0.0
 10
106.8609725682644
 20
136.6816996009011
 30
0.0
 10
106.821229206506
 20
136.75916803742
 30
0.0
 10
106.7750152161468
 20
136.8328451759056
 30
0.0
 10
106.722669871741
 20
136.9021360344396
 30
0.0
 10
106.6645439887538
 20
136.9665498446807
 30
0.0
 10
106.6011439860035
 20
137.0255605188104
 30
0.0
 10
106.5328799056557
 20
137.0787511101132
 30
0.0
 10
106.4603473565288
 20
137.1256790418321
 30
0.0
 10
106.3840191896843
 20
137.1660689102481
 30
0.0
 10
106.278194043058
 20
137.210390602866
 30
0.0
 10
106.1392165612602
 20
137.2498103095951
 30
0.0
 10
106.0245682563082
 20
137.2556721719741
 30
0.0
 10
105.9672441727711
 20
137.258603092354
 30
0.0
 11
106.9520519257831
 21
136.258603092354
 31
0.0
 11
106.9371038736036
 21
136.4321742422946
 31
0.0
 11
106.8926607511694
 21
136.6006232356801
 31
0.0
 11
106.859801090403
 21
136.6811807143884
 31
0.0
 11
106.8201127047233
 21
136.7586030923541
 31
0.0
 11
106.7739797913248
 21
136.8321336605027
 31
0.0
 11
106.7216506795066
 21
136.9013907020409
 31
0.0
 11
106.6636472925154
 21
136.9656672838115
 31
0.0
 11
106.6002663943304
 21
137.0246475354735
 31
0.0
 11
106.5321493308509
 21
137.0777210532678
 31
0.0
 11
106.4596480492771
 21
137.1246284961389
 31
0.0
 11
106.3834813613573
 21
137.1648915910254
 31
0.0
 11
106.3040682616046
 21
137.1982957131403
 31
0.0
 11
106.1383323004602
 21
137.2433968430918
 31
0.0
 11
105.9672441727711
 21
137.258603092354
 31
0.0
  0
SPLINE
  5
350
330
1F
100
AcDbEntity
  8
Sichtbare_Kanten_TC_020513_DIN_
  6
Continuous
 62
     7
100
AcDbSpline
210
0.0
220
0.0
230
1.0
 70
     8
 71
     3
 72
    21
 73
    17
 74
    15
 42
0.000000001
 43
0.0000000001
 44
0.00000001
 40
0.0
 40
0.0
 40
0.0
 40
0.0
 40
0.1717625593547927
 40
0.3435255357334046
 40
0.4296781657042948
 40
0.5158319876385998
 40
0.6021844277289565
 40
0.6885368018532357
 40
0.7751151376683882
 40
0.8616938403600936
 40
0.9484974902748159
 40
1.035301810677766
 40
1.122304066121039
 40
1.209305586560843
 40
1.383518829154583
 40
1.557732456108142
 40
1.557732456108142
 40
1.557732456108142
 40
1.557732456108142
 10
104.2307623961021
 20
107.258603092357
 30
0.0
 10
104.2880864796392
 20
107.261534012737
 30
0.0
 10
104.4027347845913
 20
107.2673958751162
 30
0.0
 10
104.541712266389
 20
107.3068155818459
 30
0.0
 10
104.6475374130152
 20
107.3511372744639
 30
0.0
 10
104.7238655798597
 20
107.3915271428799
 30
0.0
 10
104.7963981289867
 20
107.4384550745988
 30
0.0
 10
104.8646622093345
 20
107.4916456659015
 30
0.0
 10
104.9280622120848
 20
107.5506563400308
 30
0.0
 10
104.9861880950721
 20
107.6150701502716
 30
0.0
 10
105.0385334394778
 20
107.6843610088055
 30
0.0
 10
105.0847474298371
 20
107.7580381472911
 30
0.0
 10
105.1244907915954
 20
107.8355065838103
 30
0.0
 10
105.1681756502993
 20
107.9430901416148
 30
0.0
 10
105.2069376181719
 20
108.0841900359078
 30
0.0
 10
105.2126926415391
 20
108.2004653636983
 30
0.0
 10
105.2155701491141
 20
108.258603092357
 30
0.0
 11
104.2307623961021
 21
107.258603092357
 31
0.0
 11
104.4018505237913
 21
107.2738093416196
 31
0.0
 11
104.5675864849356
 21
107.3189104715715
 31
0.0
 11
104.6469995846883
 21
107.3523145936866
 31
0.0
 11
104.7231662726082
 21
107.3925776885731
 31
0.0
 11
104.7956675541819
 21
107.4394851314442
 31
0.0
 11
104.8637846176614
 21
107.4925586492384
 31
0.0
 11
104.9271655158464
 21
107.5515389009
 31
0.0
 11
104.9851689028376
 21
107.6158154826703
 31
0.0
 11
105.0374980146558
 21
107.6850725242084
 31
0.0
 11
105.0836309280543
 21
107.7586030923571
 31
0.0
 11
105.1233193137339
 21
107.836025470323
 31
0.0
 11
105.1561789745004
 21
107.9165829490316
 31
0.0
 11
105.2006220969346
 21
108.0850319424172
 31
0.0
 11
105.2155701491141
 21
108.258603092357
 31
0.0
  0
SPLINE
  5
351
330
1F
100
AcDbEntity
  8
Sichtbare_Kanten_TC_020513_DIN_
  6
Continuous
 62
     7
100
AcDbSpline
210
0.0
220
0.0
230
1.0
 70
     8
 71
     3
 72
    21
 73
    17
 74
    15
 42
0.000000001
 43
0.0000000001
 44
0.00000001
 40
0.0
 40
0.0
 40
0.0
 40
0.0
 40
0.1717625593547232
 40
0.3435255357333725
 40
0.4296781657042944
 40
0.5158319876385994
 40
0.6021844277289441
 40
0.6885368018533617
 40
0.7751151376687169
 40
0.8616938403605509
 40
0.948497490275123
 40
1.0353018106778
 40
1.122304066120921
 40
1.209305586560707
 40
1.383518829154482
 40
1.557732456108011
 40
1.557732456108011
 40
1.557732456108011
 40
1.557732456108011
 10
105.9672441727711
 20
107.258603092354
 30
0.0
 10
106.0245682563082
 20
107.261534012734
 30
0.0
 10
106.1392165612603
 20
107.2673958751132
 30
0.0
 10
106.278194043058
 20
107.3068155818428
 30
0.0
 10
106.3840191896843
 20
107.3511372744609
 30
0.0
 10
106.4603473565288
 20
107.3915271428769
 30
0.0
 10
106.5328799056558
 20
107.4384550745958
 30
0.0
 10
106.6011439860035
 20
107.4916456658986
 30
0.0
 10
106.6645439887539
 20
107.5506563400283
 30
0.0
 10
106.722669871741
 20
107.6150701502692
 30
0.0
 10
106.7750152161467
 20
107.684361008803
 30
0.0
 10
106.8212292065062
 20
107.7580381472883
 30
0.0
 10
106.8609725682644
 20
107.8355065838073
 30
0.0
 10
106.9046574269683
 20
107.9430901416119
 30
0.0
 10
106.943419394841
 20
108.0841900359048
 30
0.0
 10
106.9491744182081
 20
108.2004653636953
 30
0.0
 10
106.9520519257831
 20
108.258603092354
 30
0.0
 11
105.9672441727711
 21
107.258603092354
 31
0.0
 11
106.1383323004602
 21
107.2738093416166
 31
0.0
 11
106.3040682616046
 21
107.3189104715685
 31
0.0
 11
106.3834813613573
 21
107.3523145936836
 31
0.0
 11
106.4596480492772
 21
107.3925776885701
 31
0.0
 11
106.5321493308509
 21
107.4394851314412
 31
0.0
 11
106.6002663943304
 21
107.4925586492355
 31
0.0
 11
106.6636472925154
 21
107.5515389008975
 31
0.0
 11
106.7216506795066
 21
107.615815482668
 31
0.0
 11
106.7739797913248
 21
107.6850725242059
 31
0.0
 11
106.8201127047233
 21
107.7586030923542
 31
0.0
 11
106.8598010904029
 21
107.83602547032
 31
0.0
 11
106.8926607511693
 21
107.9165829490286
 31
0.0
 11
106.9371038736036
 21
108.0850319424142
 31
0.0
 11
106.9520519257831
 21
108.258603092354
 31
0.0
  0
SPLINE
  5
352
330
1F
100
AcDbEntity
  8
Sichtbare_Kanten_TC_020513_DIN_
  6
Continuous
 62
     7
100
AcDbSpline
210
0.0
220
0.0
230
1.0
 70
     8
 71
     3
 72
    21
 73
    17
 74
    15
 42
0.000000001
 43
0.0000000001
 44
0.00000001
 40
0.0
 40
0.0
 40
0.0
 40
0.0
 40
0.0435534055783865
 40
0.087106714915482
 40
0.1088570944965
 40
0.1306076578592229
 40
0.1523087374833836
 40
0.1740096494963949
 40
0.1956543247070451
 40
0.2172989081919465
 40
0.2388870012400404
 40
0.2604751107544894
 40
0.282013565695409
 40
0.3035517225972766
 40
0.3464924651965162
 40
0.3894331036010406
 40
0.3894331036010406
 40
0.3894331036010406
 40
0.3894331036010406
 10
104.2307623961021
 20
136.008603092357
 30
0.0
 10
104.2300430192274
 20
136.0231375241346
 30
0.0
 10
104.2286042525018
 20
136.0522063543124
 30
0.0
 10
104.2189137648677
 20
136.0874813272801
 30
0.0
 10
104.207992550003
 20
136.1143772159806
 30
0.0
 10
104.1980567099181
 20
136.1337443246838
 30
0.0
 10
104.1865032125654
 20
136.152163608902
 30
0.0
 10
104.1734168767544
 20
136.1694863231629
 30
0.0
 10
104.1588854063096
 20
136.1855897753693
 30
0.0
 10
104.1430354059526
 20
136.2003424435659
 30
0.0
 10
104.1259693862276
 20
136.2136400910573
 30
0.0
 10
104.1078362493522
 20
136.2253720736979
 30
0.0
 10
104.0887542080872
 20
136.235469540386
 30
0.0
 10
104.0622979222488
 20
136.2465499636395
 30
0.0
 10
104.0275535525402
 20
136.256404885864
 30
0.0
 10
103.9988914782547
 20
136.2578703622864
 30
0.0
 10
103.9845604578491
 20
136.258603092357
 30
0.0
 11
104.2307623961021
 21
136.008603092357
 31
0.0
 11
104.2270253830568
 21
136.0519958798423
 31
0.0
 11
104.215914602448
 21
136.0941081281889
 31
0.0
 11
104.2076996872563
 21
136.114247497866
 31
0.0
 11
104.1977775908364
 21
136.1336030923574
 31
0.0
 11
104.1862443624868
 21
136.1519857343944
 31
0.0
 11
104.1731620845322
 21
136.1692999947788
 31
0.0
 11
104.1586612377844
 21
136.1853691402215
 31
0.0
 11
104.1428160132382
 21
136.2001142031371
 31
0.0
 11
104.1257867473685
 21
136.2133825825858
 31
0.0
 11
104.1076614269751
 21
136.2251094433036
 31
0.0
 11
104.0886197549952
 21
136.2351752170249
 31
0.0
 11
104.0687664800571
 21
136.2435262475534
 31
0.0
 11
104.027332489771
 21
136.2548015300412
 31
0.0
 11
103.9845604578491
 21
136.258603092357
 31
0.0
  0
SPLINE
  5
353
330
1F
100
AcDbEntity
  8
Sichtbare_Kanten_TC_020513_DIN_
  6
Continuous
 62
     7
100
AcDbSpline
210
0.0
220
0.0
230
1.0
 70
     8
 71
     3
 72
    21
 73
    17
 74
    15
 42
0.000000001
 43
0.0000000001
 44
0.00000001
 40
0.0
 40
0.0
 40
0.0
 40
0.0
 40
0.0429406384045424
 40
0.0858813810038354
 40
0.1074195379058153
 40
0.1289579928467754
 40
0.1505461023611079
 40
0.1721341954090146
 40
0.1937787788938385
 40
0.2154234541045722
 40
0.2371243661178271
 40
0.2588254457422888
 40
0.2805760091051573
 40
0.3023263886860832
 40
0.3458796980226804
 40
0.3894331036006999
 40
0.3894331036006999
 40
0.3894331036006999
 40
0.3894331036006999
 10
103.9845604578491
 20
108.258603092357
 30
0.0
 10
103.9988914782547
 20
108.2593358224276
 30
0.0
 10
104.0275535525403
 20
108.2608012988501
 30
0.0
 10
104.0622979222489
 20
108.2706562210747
 30
0.0
 10
104.0887542080873
 20
108.2817366443286
 30
0.0
 10
104.1078362493521
 20
108.2918341110168
 30
0.0
 10
104.1259693862275
 20
108.3035660936572
 30
0.0
 10
104.1430354059527
 20
108.3168637411482
 30
0.0
 10
104.1588854063096
 20
108.3316164093448
 30
0.0
 10
104.1734168767544
 20
108.3477198615513
 30
0.0
 10
104.1865032125654
 20
108.3650425758125
 30
0.0
 10
104.1980567099181
 20
108.383461860031
 30
0.0
 10
104.2079925500029
 20
108.4028289687344
 30
0.0
 10
104.2189137648677
 20
108.4297248574346
 30
0.0
 10
104.2286042525018
 20
108.464999830402
 30
0.0
 10
104.2300430192274
 20
108.4940686605796
 30
0.0
 10
104.2307623961021
 20
108.508603092357
 30
0.0
 11
103.9845604578491
 21
108.258603092357
 31
0.0
 11
104.027332489771
 21
108.2624046546729
 31
0.0
 11
104.0687664800571
 21
108.2736799371609
 31
0.0
 11
104.0886197549952
 21
108.2820309676896
 31
0.0
 11
104.1076614269751
 21
108.2920967414111
 31
0.0
 11
104.1257867473684
 21
108.3038236021287
 31
0.0
 11
104.1428160132382
 21
108.317091981577
 31
0.0
 11
104.1586612377844
 21
108.3318370444925
 31
0.0
 11
104.1731620845322
 21
108.3479061899353
 31
0.0
 11
104.1862443624868
 21
108.3652204503201
 31
0.0
 11
104.1977775908364
 21
108.3836030923574
 31
0.0
 11
104.2076996872563
 21
108.402958686849
 31
0.0
 11
104.215914602448
 21
108.423098056526
 31
0.0
 11
104.2270253830568
 21
108.4652103048721
 31
0.0
 11
104.2307623961021
 21
108.508603092357
 31
0.0
  0
LWPOLYLINE
  5
354
330
1F
100
AcDbEntity
  8
Sichtbare_Kanten_TC_020513_DIN_
  6
Continuous
 62
     7
100
AcDbPolyline
 90
       25
 70
     0
 43
0.0
 10
104.4596651912801
 20
116.25860285394
 10
104.3902782322041
 20
116.251388307736
 10
104.3274525524251
 20
116.229368563817
 10
104.2715910793411
 20
116.191977378056
 10
104.2230943561661
 20
116.138650890515
 10
104.1823629261121
 20
116.06882404916
 10
104.1497985244861
 20
115.98193180196
 10
104.1255144001111
 20
115.877566453144
 10
104.1087464214431
 20
115.756566640064
 10
104.0986887336841
 20
115.620334263966
 10
104.0945366741291
 20
115.470275994465
 10
104.0954891563521
 20
115.307796116993
 10
104.1007427097431
 20
115.134300109073
 10
104.1095510841481
 20
114.949203845188
 10
104.1212550521962
 20
114.748896475956
 10
104.1350535274611
 20
114.534660693332
 10
104.1501394630541
 20
114.308033701107
 10
104.1657070041761
 20
114.070552703067
 10
104.1809479118451
 20
113.82375549905
 10
104.1949573875531
 20
113.569263335392
 10
104.2070738197431
 20
113.309183236286
 10
104.2170027614701
 20
113.045795675441
 10
104.2244533420671
 20
112.781382914707
 10
104.2291370750531
 20
112.518224831745
 10
104.2307618976701
 20
112.258603092357
  0
LWPOLYLINE
  5
355
330
1F
100
AcDbEntity
  8
Sichtbare_Kanten_TC_020513_DIN_
  6
Continuous
 62
     7
100
AcDbPolyline
 90
       25
 70
     0
 43
0.0
 10
109.5682135940661
 20
120.258603062558
 10
109.5600119949451
 20
120.003823306489
 10
109.5355216384991
 20
119.745956774878
 10
109.4949165702931
 20
119.487088438201
 10
109.4383660675151
 20
119.229303415942
 10
109.3660441757311
 20
118.974687274622
 10
109.2781225563151
 20
118.725324984717
 10
109.1751614929311
 20
118.48316472404
 10
109.0588084579571
 20
118.249671276736
 10
108.9308396698101
 20
118.026208397078
 10
108.7930265785321
 20
117.814140137362
 10
108.6471454025372
 20
117.614831443953
 10
108.4949675918691
 20
117.4296457731
 10
108.3352319122421
 20
117.256571766066
 10
108.1657663704021
 20
117.09276032083
 10
107.9883066536061
 20
116.939820166754
 10
107.8046027542221
 20
116.799377914595
 10
107.6164046646221
 20
116.673060771155
 10
107.4254695297351
 20
116.562494751143
 10
107.2336379409901
 20
116.46904718511
 10
107.0427147270311
 20
116.392908211874
 10
106.8543616653551
 20
116.333936568426
 10
106.6702453018291
 20
116.291989799665
 10
106.4920274139511
 20
116.266926046537
 10
106.3213757396801
 20
116.258602853941
  0
LWPOLYLINE
  5
356
330
1F
100
AcDbEntity
  8
Sichtbare_Kanten_TC_020513_DIN_
  6
Continuous
 62
     7
100
AcDbPolyline
 90
       25
 70
     0
 43
0.0
 10
105.2155701042281
 20
112.258603092357
 10
105.2139095188251
 20
112.520082708522
 10
105.2091494918931
 20
112.785123702213
 10
105.2016273857221
 20
113.051394935772
 10
105.1916781784161
 20
113.316565867588
 10
105.1796380401721
 20
113.578305360004
 10
105.1658491016491
 20
113.834283467456
 10
105.1510909916031
 20
114.082363959476
 10
105.1363614917862
 20
114.32090293996
 10
105.1225546718702
 20
114.548329826519
 10
105.1105610252491
 20
114.763075228855
 10
105.1012734295001
 20
114.963570352718
 10
105.0955847622021
 20
115.148666020557
 10
105.0943414093121
 20
115.322092291042
 10
105.0984064460861
 20
115.484042879269
 10
105.1086501003371
 20
115.6331647598
 10
105.1259414077871
 20
115.768103119061
 10
105.1511517883411
 20
115.887503143475
 10
105.1851550460921
 20
115.990015979931
 10
105.2287463070021
 20
116.074964519665
 10
105.2816895366771
 20
116.142917987034
 10
105.3434614063371
 20
116.194567199872
 10
105.4135350109211
 20
116.230603572056
 10
105.4913858295551
 20
116.251718517468
 10
105.5764917255511
 20
116.25860285394
  0
LWPOLYLINE
  5
357
330
1F
100
AcDbEntity
  8
Sichtbare_Kanten_TC_020513_DIN_
  6
Continuous
 62
     7
100
AcDbPolyline
 90
       25
 70
     0
 43
0.0
 10
106.9728151680101
 20
116.258602853941
 10
107.1403519035451
 20
116.266911741422
 10
107.3161355377301
 20
116.29194032781
 10
107.4984876037701
 20
116.333845373319
 10
107.6857248664961
 20
116.392781850027
 10
107.8761640907391
 20
116.468905326055
 10
108.0681244255171
 20
116.562370773481
 10
108.2597581268421
 20
116.672984477209
 10
108.4491340042221
 20
116.799358841108
 10
108.6344138504131
 20
116.939849969076
 10
108.8137594581712
 20
117.09281396501
 10
108.9853326202501
 20
117.256607528853
 10
109.1473189712631
 20
117.429617162871
 10
109.3020073295701
 20
117.614801939654
 10
109.4505230308641
 20
117.814045365977
 10
109.5910254837141
 20
118.026003059077
 10
109.7216740966901
 20
118.249330636191
 10
109.8406282783611
 20
118.48268311851
 10
109.9460474372971
 20
118.724716421293
 10
110.0361958862411
 20
118.973991092371
 10
110.1104489685161
 20
119.228578027415
 10
110.1685825706591
 20
119.486404772925
 10
110.2103821159471
 20
119.745399471449
 10
110.2356211067311
 20
120.003489520478
 10
110.2440825821032
 20
120.258603062558
  0
LWPOLYLINE
  5
358
330
1F
100
AcDbEntity
  8
Sichtbare_Kanten_TC_020513_DIN_
  6
Continuous
 62
     7
100
AcDbPolyline
 90
       25
 70
     0
 43
0.0
 10
110.2440825821032
 20
124.258603122162
 10
110.2356211067311
 20
124.513716664242
 10
110.2103821159471
 20
124.77180671327
 10
110.1685825706591
 20
125.030801411795
 10
110.1104489685161
 20
125.288628157305
 10
110.0361958862411
 20
125.543215092348
 10
109.9460474372971
 20
125.792489763426
 10
109.8406282783611
 20
126.03452306621
 10
109.7216740966901
 20
126.267875548529
 10
109.5910254837141
 20
126.491203125643
 10
109.4505230308641
 20
126.703160818743
 10
109.3020073295701
 20
126.902404245066
 10
109.1473189712631
 20
127.087589021849
 10
108.9853326202501
 20
127.260598655867
 10
108.8137594581712
 20
127.424392219709
 10
108.6344138504131
 20
127.577356215643
 10
108.4491340042221
 20
127.717847343611
 10
108.2597581268421
 20
127.84422170751
 10
108.0681244255171
 20
127.954835411238
 10
107.8761640907391
 20
128.048300858663
 10
107.6857248664961
 20
128.124424334692
 10
107.4984876037701
 20
128.183360811399
 10
107.3161355377301
 20
128.225265856908
 10
107.1403519035451
 20
128.250294443296
 10
106.9728151680101
 20
128.258603330778
  0
LWPOLYLINE
  5
359
330
1F
100
AcDbEntity
  8
Sichtbare_Kanten_TC_020513_DIN_
  6
Continuous
 62
     7
100
AcDbPolyline
 90
       25
 70
     0
 43
0.0
 10
106.3213757396801
 20
128.258603330778
 10
106.4997927070721
 20
128.249869462179
 10
106.6842595459091
 20
128.223449107336
 10
106.8725553871261
 20
128.1789476835
 10
107.0620647789111
 20
128.117469068693
 10
107.2500125290021
 20
128.040700074362
 10
107.4336186767681
 20
127.950327511954
 10
107.6137105346791
 20
127.846005674528
 10
107.7964846016041
 20
127.72401225202
 10
107.9795829177961
 20
127.585108991789
 10
108.1602183700671
 20
127.430291291403
 10
108.3356086135971
 20
127.260559912848
 10
108.5031572700611
 20
127.077582594084
 10
108.6609379173391
 20
126.884166713881
 10
108.8071314216721
 20
126.683230515646
 10
108.9399162651171
 20
126.477692540812
 10
109.0608016372791
 20
126.264759119677
 10
109.1733423591721
 20
126.037375148463
 10
109.2752996803391
 20
125.797883983778
 10
109.3643323303331
 20
125.548790808844
 10
109.4381204963791
 20
125.29260825746
 10
109.4952932716481
 20
125.032186325716
 10
109.5359197975261
 20
124.770824726748
 10
109.5601693512071
 20
124.51185372107
 10
109.5682135940661
 20
124.258603122162
  0
LWPOLYLINE
  5
35A
330
1F
100
AcDbEntity
  8
Sichtbare_Kanten_TC_020513_DIN_
  6
Continuous
 62
     7
100
AcDbPolyline
 90
       25
 70
     0
 43
0.0
 10
104.2307618976701
 20
132.258603092357
 10
104.2291370750531
 20
131.99898135297
 10
104.2244533420671
 20
131.735823270008
 10
104.2170027614701
 20
131.471410509273
 10
104.2070738197431
 20
131.208022948429
 10
104.1949573875531
 20
130.947942849323
 10
104.1809479118451
 20
130.693450685665
 10
104.1657070041761
 20
130.446653481647
 10
104.1501394630541
 20
130.209172483608
 10
104.1350535274611
 20
129.982545491382
 10
104.1212550521962
 20
129.768309708759
 10
104.1095510841481
 20
129.568002339527
 10
104.1007427097431
 20
129.382906075641
 10
104.0954891563521
 20
129.209410067722
 10
104.0945366741291
 20
129.04693019025
 10
104.0986887336841
 20
128.89687192075
 10
104.1087464214431
 20
128.760639544651
 10
104.1255144001111
 20
128.639639731571
 10
104.1497985244861
 20
128.535274382755
 10
104.1823629261121
 20
128.448382135556
 10
104.2230943561661
 20
128.378555294201
 10
104.2715910793411
 20
128.32522880666
 10
104.3274525524251
 20
128.2878376209
 10
104.3902782322041
 20
128.26581787698
 10
104.4596651912801
 20
128.258603330777
  0
LWPOLYLINE
  5
35B
330
1F
100
AcDbEntity
  8
Sichtbare_Kanten_TC_020513_DIN_
  6
Continuous
 62
     7
100
AcDbPolyline
 90
       25
 70
     0
 43
0.0
 10
105.5764917255511
 20
128.258603330777
 10
105.4913858295551
 20
128.265487667248
 10
105.4135350109211
 20
128.28660261266
 10
105.3434614063371
 20
128.322638984845
 10
105.2816895366771
 20
128.374288197682
 10
105.2287463070021
 20
128.442241665051
 10
105.1851550460921
 20
128.527190204785
 10
105.1511517883411
 20
128.629703041241
 10
105.1259414077871
 20
128.749103065655
 10
105.1086501003371
 20
128.884041424915
 10
105.0984064460861
 20
129.033163305447
 10
105.0943414093121
 20
129.195113893673
 10
105.0955847622021
 20
129.368540164158
 10
105.1012734295001
 20
129.553635831997
 10
105.1105610252491
 20
129.75413095586
 10
105.1225546718702
 20
129.968876358196
 10
105.1363614917862
 20
130.196303244754
 10
105.1510909916031
 20
130.434842225238
 10
105.1658491016491
 20
130.682922717258
 10
105.1796380401721
 20
130.93890082471
 10
105.1916781784161
 20
131.200640317127
 10
105.2016273857221
 20
131.465811248943
 10
105.2091494918931
 20
131.732082482502
 10
105.2139095188251
 20
131.997123476192
 10
105.2155701042281
 20
132.258603092357
  0
LWPOLYLINE
  5
35C
330
1F
100
AcDbEntity
  8
Sichtbare_Kanten_TC_020513_DIN_
  6
Continuous
 62
     7
100
AcDbPolyline
 90
       25
 70
     0
 43
0.0
 10
132.7259060264689
 20
112.258603092354
 10
132.5710626960859
 20
112.16313552491
 10
132.4167248130899
 20
112.062586065453
 10
132.2649380088909
 20
111.957424398583
 10
132.1177574516399
 20
111.848123785179
 10
131.9772383094889
 20
111.735153909844
 10
131.8454285980329
 20
111.618985649269
 10
131.7243787170519
 20
111.500091072243
 10
131.6153975845439
 20
111.377939697426
 10
131.5167447448839
 20
111.245929714363
 10
131.4374514938459
 20
111.108318086784
 10
131.3870927215679
 20
110.972049947899
 10
131.3696524025069
 20
110.844389911812
 10
131.3870927215679
 20
110.727556463402
 10
131.4374514938459
 20
110.622518774193
 10
131.5167447448839
 20
110.534007068794
 10
131.6153975845439
 20
110.462961908501
 10
131.7243787170519
 20
110.407979007881
 10
131.8454285980329
 20
110.363449569862
 10
131.9772383094889
 20
110.328011032265
 10
132.1177574516399
 20
110.300846811455
 10
132.2649380088909
 20
110.281140323799
 10
132.4167248130899
 20
110.268074985664
 10
132.5710626960859
 20
110.26083540551
 10
132.7259060264689
 20
110.258602615516
  0
LWPOLYLINE
  5
35D
330
1F
100
AcDbEntity
  8
Sichtbare_Kanten_TC_020513_DIN_
  6
Continuous
 62
     7
100
AcDbPolyline
 90
       25
 70
     0
 43
0.0
 10
132.7259060264689
 20
134.258603569191
 10
132.5710626960859
 20
134.256370779197
 10
132.4167248130899
 20
134.249131199043
 10
132.2649380088909
 20
134.236065860908
 10
132.1177574516399
 20
134.216359373253
 10
131.9772383094889
 20
134.189195152443
 10
131.8454285980329
 20
134.153756614845
 10
131.7243787170519
 20
134.109227176826
 10
131.6153975845439
 20
134.054244276207
 10
131.5167447448839
 20
133.983199115913
 10
131.4374514938459
 20
133.894687410515
 10
131.3870927215679
 20
133.789649721306
 10
131.3696524025069
 20
133.672816272896
 10
131.3870927215679
 20
133.545156236809
 10
131.4374514938459
 20
133.408888097923
 10
131.5167447448839
 20
133.271276470345
 10
131.6153975845439
 20
133.139266487282
 10
131.7243787170519
 20
133.017115112465
 10
131.8454285980329
 20
132.898220535439
 10
131.9772383094889
 20
132.782052274864
 10
132.1177574516399
 20
132.669082399529
 10
132.2649380088909
 20
132.559781786125
 10
132.4167248130899
 20
132.454620119255
 10
132.5710626960859
 20
132.354070659798
 10
132.7259060264689
 20
132.258603092354
  0
LWPOLYLINE
  5
35E
330
1F
100
AcDbEntity
  8
Sichtbare_Kanten_TC_020513_DIN_
  6
Continuous
 62
     7
100
AcDbPolyline
 90
       58
 70
     0
 43
0.0
 10
132.7259060264689
 20
112.258603092354
 10
133.4651180626019
 20
112.708803530854
 10
134.1636511207689
 20
113.14651381604
 10
134.823460233317
 20
113.572573181313
 10
135.4463335395919
 20
113.987763043564
 10
136.0339018226729
 20
114.392813559693
 10
136.5876909614669
 20
114.788408394974
 10
137.1090885521039
 20
115.175188895386
 10
137.59937728654
 20
115.553758259934
 10
138.0597349525559
 20
115.924685116928
 10
138.4912439704999
 20
116.288505908173
 10
138.8949104667769
 20
116.645729061287
 10
139.2716452003589
 20
116.996836181801
 10
139.6222921730149
 20
117.342286523502
 10
139.9476143241989
 20
117.682516392391
 10
140.2483269096479
 20
118.017943617028
 10
140.5250593544109
 20
118.348967846554
 10
140.7783981681929
 20
118.67597353093
 10
141.0088726402389
 20
118.999330218952
 10
141.2169500709639
 20
119.319395538491
 10
141.4030596138109
 20
119.636515196484
 10
141.5675779701339
 20
119.951024767082
 10
141.71082462083
 20
120.263251181763
 10
141.8330904365649
 20
120.573514070433
 10
141.9346186042889
 20
120.882126208466
 10
142.0156046272379
 20
121.189394857805
 10
142.0762058616739
 20
121.495623182576
 10
142.1165415168869
 20
121.801110733371
 10
142.1366878868209
 20
122.106154862862
 10
142.1366878868209
 20
122.411051321846
 10
142.1165415168869
 20
122.716095451337
 10
142.0762058616739
 20
123.021583002132
 10
142.0156046272379
 20
123.327811326903
 10
141.9346186042889
 20
123.635079976242
 10
141.8330904365649
 20
123.943692114275
 10
141.71082462083
 20
124.253955002945
 10
141.5675779701339
 20
124.566181417626
 10
141.4030596138109
 20
124.880690988224
 10
141.2169500709639
 20
125.197810646218
 10
141.0088726402389
 20
125.517875965756
 10
140.7783981681929
 20
125.841232653778
 10
140.5250593544109
 20
126.168238338154
 10
140.2483269096479
 20
126.499262567681
 10
139.9476143241989
 20
126.834689792317
 10
139.6222921730149
 20
127.174919661205
 10
139.2716452003589
 20
127.520370002907
 10
138.8949104667769
 20
127.871477123421
 10
138.4912439704999
 20
128.228700276535
 10
138.0597349525559
 20
128.59252106778
 10
137.59937728654
 20
128.963447924774
 10
137.1090885521039
 20
129.342017289322
 10
136.5876909614669
 20
129.728797789734
 10
136.0339018226729
 20
130.124392625015
 10
135.4463335395919
 20
130.529443141144
 10
134.823460233317
 20
130.944633003395
 10
134.1636511207689
 20
131.370692368668
 10
133.4651180626019
 20
131.808402653855
 10
132.7259060264689
 20
132.258603092354
  0
LWPOLYLINE
  5
35F
330
1F
100
AcDbEntity
  8
Sichtbare_Kanten_TC_020513_DIN_
  6
Continuous
 62
     7
100
AcDbPolyline
 90
       25
 70
     0
 43
0.0
 10
104.4596651913491
 20
232.913793913029
 10
104.3902782322731
 20
232.663599840306
 10
104.3274525524941
 20
232.407836309574
 10
104.2715910794111
 20
232.148794523381
 10
104.2230943562361
 20
231.888756147526
 10
104.1823629261821
 20
231.63001000037
 10
104.1497985245551
 20
231.374840131901
 10
104.1255144001812
 20
231.125501981877
 10
104.1087464215131
 20
230.883867136143
 10
104.0986887337531
 20
230.651580682896
 10
104.0945366741981
 20
230.430292478703
 10
104.0954891564221
 20
230.221654764317
 10
104.1007427098121
 20
230.02731501212
 10
104.1095510842171
 20
229.84684883704
 10
104.1212550522651
 20
229.676582208775
 10
104.1350535275311
 20
229.517845502995
 10
104.1501394631231
 20
229.372240892552
 10
104.1657070042461
 20
229.241358629368
 10
104.1809479119151
 20
229.12679850211
 10
104.1949573876231
 20
229.029936185978
 10
104.2070738198131
 20
228.951002946995
 10
104.2170027615401
 20
228.889855734013
 10
104.2244533421371
 20
228.846356264256
 10
104.2291370751231
 20
228.820359102391
 10
104.2307618977401
 20
228.811725965641
  0
LWPOLYLINE
  5
360
330
1F
100
AcDbEntity
  8
Sichtbare_Kanten_TC_020513_DIN_
  6
Continuous
 62
     7
100
AcDbPolyline
 90
       25
 70
     0
 43
0.0
 10
109.5682135941351
 20
238.655175558232
 10
109.5600119950141
 20
238.65179478278
 10
109.5355216385691
 20
238.641480795048
 10
109.4949165703621
 20
238.623966566227
 10
109.4383660675851
 20
238.598982683323
 10
109.3660441758011
 20
238.566271654271
 10
109.2781225563851
 20
238.525561681889
 10
109.1751614930001
 20
238.476507059239
 10
109.0588084580271
 20
238.419083944462
 10
108.9308396698801
 20
238.353542677067
 10
108.7930265786021
 20
238.280138364933
 10
108.6471454026071
 20
238.199121347569
 10
108.4949675919381
 20
238.110746732853
 10
108.3352319123121
 20
238.013424268864
 10
108.1657663704721
 20
237.905010572575
 10
107.9883066536751
 20
237.785734525822
 10
107.8046027542921
 20
237.655829778813
 10
107.6164046646921
 20
237.51553236594
 10
107.4254695298041
 20
237.365080705784
 10
107.2336379410591
 20
237.204760900639
 10
107.0427147271011
 20
237.035683981083
 10
106.8543616654251
 20
236.859344831608
 10
106.6702453018991
 20
236.677238336705
 10
106.4920274140211
 20
236.490861765049
 10
106.3213757397501
 20
236.301710001133
  0
LWPOLYLINE
  5
361
330
1F
100
AcDbEntity
  8
Sichtbare_Kanten_TC_020513_DIN_
  6
Continuous
 62
     7
100
AcDbPolyline
 90
       25
 70
     0
 43
0.0
 10
105.2155701042981
 20
228.985373369358
 10
105.2139095188941
 20
228.994128099583
 10
105.2091494919631
 20
229.020494810246
 10
105.2016273857921
 20
229.064621320866
 10
105.1916781784861
 20
229.126653066777
 10
105.1796380402411
 20
229.206740251683
 10
105.1658491017191
 20
229.305033079289
 10
105.1510909916731
 20
229.421262136601
 10
105.1363614918561
 20
229.55399929633
 10
105.1225546719401
 20
229.701618543766
 10
105.1105610253181
 20
229.862493864201
 10
105.1012734295691
 20
230.034994474552
 10
105.0955847622721
 20
230.217937818669
 10
105.0943414093821
 20
230.415117136143
 10
105.0984064461561
 20
230.62643944373
 10
105.1086501004071
 20
230.850173822544
 10
105.1259414078561
 20
231.084582201145
 10
105.1511517884101
 20
231.327936044834
 10
105.1851550461621
 20
231.57849728217
 10
105.2287463070721
 20
231.834284654759
 10
105.2816895367471
 20
232.09298788657
 10
105.3434614064071
 20
232.352296701573
 10
105.4135350109901
 20
232.609896055363
 10
105.4913858296241
 20
232.86347567191
 10
105.5764917256201
 20
233.11072050681
  0
LWPOLYLINE
  5
362
330
1F
100
AcDbEntity
  8
Sichtbare_Kanten_TC_020513_DIN_
  6
Continuous
 62
     7
100
AcDbPolyline
 90
       25
 70
     0
 43
0.0
 10
106.9728151680801
 20
235.525354734562
 10
107.1403519036142
 20
235.717717996739
 10
107.3161355378001
 20
235.906721941136
 10
107.4984876038401
 20
236.090847841404
 10
107.6857248665662
 20
236.268572202824
 10
107.8761640908091
 20
236.438371530674
 10
108.0681244255871
 20
236.598724714421
 10
108.2597581269111
 20
236.748542181156
 10
108.4491340042921
 20
236.887609354161
 10
108.6344138504831
 20
237.015771261357
 10
108.8137594582411
 20
237.132868162297
 10
108.9853326203201
 20
237.238742700718
 10
109.1473189713331
 20
237.33325420966
 10
109.3020073296401
 20
237.418636671208
 10
109.4505230309341
 20
237.496461263798
 10
109.5910254837841
 20
237.56657539954
 10
109.7216740967601
 20
237.628831258915
 10
109.8406282784311
 20
237.683076254032
 10
109.9460474373671
 20
237.729162565373
 10
110.0361958863111
 20
237.767240396641
 10
110.1104489685861
 20
237.797724596165
 10
110.1685825707291
 20
237.820913187168
 10
110.2103821160171
 20
237.837106577061
 10
110.2356211068001
 20
237.846605173252
 10
110.2440825821731
 20
237.849704614781
  0
LWPOLYLINE
  5
363
330
1F
100
AcDbEntity
  8
Sichtbare_Kanten_TC_020513_DIN_
  6
Continuous
 62
     7
100
AcDbPolyline
 90
       25
 70
     0
 43
0.0
 10
132.7259060265389
 20
196.424023500584
 10
132.5710626961559
 20
196.32855593314
 10
132.4167248131599
 20
196.228006473683
 10
132.2649380089609
 20
196.122844806813
 10
132.1177574517099
 20
196.013544193409
 10
131.9772383095589
 20
195.900574318074
 10
131.8454285981029
 20
195.784406057499
 10
131.7243787171209
 20
195.665511480473
 10
131.6153975846139
 20
195.543360105656
 10
131.5167447449529
 20
195.411350122593
 10
131.4374514939159
 20
195.273738495015
 10
131.3870927216379
 20
195.137470356129
 10
131.3696524025769
 20
195.009810320042
 10
131.3870927216379
 20
194.892976871632
 10
131.4374514939159
 20
194.787939182423
 10
131.5167447449529
 20
194.699427477024
 10
131.6153975846139
 20
194.628382316731
 10
131.7243787171209
 20
194.573399416111
 10
131.8454285981029
 20
194.528869978092
 10
131.9772383095589
 20
194.493431440495
 10
132.1177574517099
 20
194.466267219685
 10
132.2649380089609
 20
194.446560732029
 10
132.4167248131599
 20
194.433495393894
 10
132.5710626961559
 20
194.42625581374
 10
132.7259060265389
 20
194.424023023747
  0
LWPOLYLINE
  5
364
330
1F
100
AcDbEntity
  8
Sichtbare_Kanten_TC_020513_DIN_
  6
Continuous
 62
     7
100
AcDbPolyline
 90
       58
 70
     0
 43
0.0
 10
132.7259060265389
 20
196.424023500584
 10
133.4651180626719
 20
196.874223939083
 10
134.1636511208379
 20
197.31193422427
 10
134.8234602333869
 20
197.737993589543
 10
135.4463335396619
 20
198.153183451794
 10
136.0339018227429
 20
198.558233967922
 10
136.5876909615369
 20
198.953828803204
 10
137.1090885521739
 20
199.340609303616
 10
137.5993772866099
 20
199.719178668164
 10
138.0597349526249
 20
200.090105525158
 10
138.4912439705699
 20
200.453926316403
 10
138.8949104668469
 20
200.811149469517
 10
139.2716452004279
 20
201.162256590031
 10
139.6222921730839
 20
201.507706931732
 10
139.9476143242689
 20
201.847936800621
 10
140.2483269097179
 20
202.183364025257
 10
140.5250593544809
 20
202.514388254784
 10
140.7783981682629
 20
202.84139393916
 10
141.0088726403089
 20
203.164750627182
 10
141.2169500710339
 20
203.48481594672
 10
141.4030596138799
 20
203.801935604714
 10
141.567577970204
 20
204.116445175312
 10
141.7108246208989
 20
204.428671589993
 10
141.8330904366339
 20
204.738934478663
 10
141.9346186043589
 20
205.047546616696
 10
142.0156046273079
 20
205.354815266035
 10
142.0762058617439
 20
205.661043590806
 10
142.1165415169559
 20
205.966531141601
 10
142.1366878868909
 20
206.271575271092
 10
142.1366878868909
 20
206.576471730076
 10
142.1165415169559
 20
206.881515859566
 10
142.0762058617439
 20
207.187003410362
 10
142.0156046273079
 20
207.493231735133
 10
141.9346186043589
 20
207.800500384472
 10
141.8330904366339
 20
208.109112522505
 10
141.7108246208989
 20
208.419375411175
 10
141.567577970204
 20
208.731601825856
 10
141.4030596138799
 20
209.046111396454
 10
141.2169500710339
 20
209.363231054447
 10
141.0088726403089
 20
209.683296373986
 10
140.7783981682629
 20
210.006653062008
 10
140.5250593544809
 20
210.333658746384
 10
140.2483269097179
 20
210.66468297591
 10
139.9476143242689
 20
211.000110200546
 10
139.6222921730839
 20
211.340340069435
 10
139.2716452004279
 20
211.685790411137
 10
138.8949104668469
 20
212.036897531651
 10
138.4912439705699
 20
212.394120684765
 10
138.0597349526249
 20
212.75794147601
 10
137.5993772866099
 20
213.128868333004
 10
137.1090885521739
 20
213.507437697552
 10
136.5876909615369
 20
213.894218197964
 10
136.0339018227429
 20
214.289813033245
 10
135.4463335396619
 20
214.694863549374
 10
134.8234602333869
 20
215.110053411625
 10
134.1636511208379
 20
215.536112776898
 10
133.4651180626719
 20
215.973823062085
 10
132.7259060265389
 20
216.424023500584
  0
LWPOLYLINE
  5
365
330
1F
100
AcDbEntity
  8
Sichtbare_Kanten_TC_020513_DIN_
  6
Continuous
 62
     7
100
AcDbPolyline
 90
       25
 70
     0
 43
0.0
 10
132.7259060265389
 20
218.424023977421
 10
132.5710626961559
 20
218.421791187428
 10
132.4167248131599
 20
218.414551607273
 10
132.2649380089609
 20
218.401486269139
 10
132.1177574517099
 20
218.381779781483
 10
131.9772383095589
 20
218.354615560673
 10
131.8454285981029
 20
218.319177023075
 10
131.7243787171209
 20
218.274647585057
 10
131.6153975846139
 20
218.219664684437
 10
131.5167447449529
 20
218.148619524144
 10
131.4374514939159
 20
218.060107818745
 10
131.3870927216379
 20
217.955070129536
 10
131.3696524025769
 20
217.838236681126
 10
131.3870927216379
 20
217.710576645039
 10
131.4374514939159
 20
217.574308506153
 10
131.5167447449529
 20
217.436696878575
 10
131.6153975846139
 20
217.304686895512
 10
131.7243787171209
 20
217.182535520695
 10
131.8454285981029
 20
217.063640943669
 10
131.9772383095589
 20
216.947472683094
 10
132.1177574517099
 20
216.834502807759
 10
132.2649380089609
 20
216.725202194355
 10
132.4167248131599
 20
216.620040527485
 10
132.5710626961559
 20
216.519491068028
 10
132.7259060265389
 20
216.424023500584
  0
DIMENSION
  5
371
330
1F
100
AcDbEntity
  8
1
100
AcDbDimension
  2
*D3
 10
158.4392057778209
 20
131.744603092351
 30
0.0
 11
154.9392057778209
 21
122.2586030923505
 31
0.0
 70
    32
  1
M20
 71
     5
 42
-1.0
 53
90.0
  3
ME10_DIM_10
100
AcDbAlignedDimension
 13
143.4484760229551
 23
112.77260309235
 33
0.0
 14
143.4484760229551
 24
131.744603092351
 34
0.0
 50
90.0
100
AcDbRotatedDimension
  0
DIMENSION
  5
37C
330
1F
100
AcDbEntity
  8
1
100
AcDbDimension
  2
*D4
 10
76.43920577782092
 20
138.258603092351
 30
0.0
 11
72.93920577782092
 21
122.258603092351
 31
0.0
 70
    32
  1
<>
 71
     5
 42
-1.0
 53
90.0
  3
ME10_DIM_11
100
AcDbAlignedDimension
 13
90.43920577775123
 23
106.258603092351
 33
0.0
 14
90.43920577775123
 24
138.258603092351
 34
0.0
 50
90.0
100
AcDbRotatedDimension
  0
DIMENSION
  5
387
330
1F
100
AcDbEntity
  8
1
100
AcDbDimension
  2
*D5
 10
158.4392057778209
 20
194.424023023747
 30
0.0
 11
154.9392057778209
 21
206.424023500584
 31
0.0
 70
    32
  1
<>
 71
     5
 42
-1.0
 53
90.0
  3
ME10_DIM_12
100
AcDbAlignedDimension
 13
142.1392055870859
 23
218.424023977421
 33
0.0
 14
142.1392055870859
 24
194.424023023747
 34
0.0
 50
90.0
100
AcDbRotatedDimension
  0
DIMENSION
  5
392
330
1F
100
AcDbEntity
  8
1
100
AcDbDimension
  2
*D6
 10
66.43920577782094
 20
194.424023500584
 30
0.0
 11
62.78920577782094
 21
218.6740235005839
 31
0.0
 70
    32
  1
<>
 71
     5
 42
-1.0
 53
90.0
  3
ME10_DIM_13
100
AcDbAlignedDimension
 13
92.43920577782092
 23
242.9240235005839
 33
0.0
 14
86.43920577782092
 24
194.424023500584
 34
0.0
 50
90.0
100
AcDbRotatedDimension
  0
DIMENSION
  5
39D
330
1F
100
AcDbEntity
  8
1
100
AcDbDimension
  2
*D7
 10
86.4392057778209
 20
185.414454584918
 30
0.0
 11
114.9392057778209
 21
188.914454584918
 31
0.0
 70
    32
  1
<>
 71
     5
 42
-1.0
 53
0.00013888888889
  3
ME10_DIM_14
100
AcDbAlignedDimension
 13
143.4392057778209
 23
194.924023500584
 33
0.0
 14
86.43920577782092
 24
194.424023500584
 34
0.0
100
AcDbRotatedDimension
  0
ENDSEC
  0
SECTION
  2
OBJECTS
  0
DICTIONARY
  5
C
330
0
100
AcDbDictionary
281
     1
  3
ACAD_GROUP
350
D
  3
ACAD_LAYOUT
350
1A
  3
ACAD_MATERIAL
350
3B
  3
ACAD_MLEADERSTYLE
350
3A0
  3
ACAD_MLINESTYLE
350
17
  3
ACAD_PLOTSETTINGS
350
19
  3
ACAD_PLOTSTYLENAME
350
E
  3
ACAD_VISUALSTYLE
350
2A
  3
AcDbVariableDictionary
350
39E
  0
DICTIONARY
  5
D
102
{ACAD_REACTORS
330
C
102
}
330
C
100
AcDbDictionary
281
     1
  0
DICTIONARY
  5
1A
102
{ACAD_REACTORS
330
C
102
}
330
C
100
AcDbDictionary
281
     1
  3
Layout1
350
1E
  3
Layout2
350
26
  3
Model
350
22
  0
DICTIONARY
  5
3B
102
{ACAD_REACTORS
330
C
102
}
330
C
100
AcDbDictionary
281
     1
  3
ByBlock
350
3D
  3
ByLayer
350
3C
  3
Global
350
3E
  0
DICTIONARY
  5
3A0
102
{ACAD_REACTORS
330
C
102
}
330
C
100
AcDbDictionary
281
     1
  0
DICTIONARY
  5
17
102
{ACAD_REACTORS
330
C
102
}
330
C
100
AcDbDictionary
281
     1
  3
Standard
350
18
  0
DICTIONARY
  5
19
102
{ACAD_REACTORS
330
C
102
}
330
C
100
AcDbDictionary
281
     1
  0
ACDBDICTIONARYWDFLT
  5
E
102
{ACAD_REACTORS
330
C
102
}
330
C
100
AcDbDictionary
281
     1
  3
Normal
350
F
100
AcDbDictionaryWithDefault
340
F
  0
DICTIONARY
  5
2A
102
{ACAD_REACTORS
330
C
102
}
330
C
100
AcDbDictionary
281
     1
  3
2dWireframe
350
2F
  3
3D Hidden
350
31
  3
3dWireframe
350
30
  3
Basic
350
32
  3
Brighten
350
36
  3
ColorChange
350
3A
  3
Conceptual
350
34
  3
Dim
350
35
  3
Facepattern
350
39
  3
Flat
350
2B
  3
FlatWithEdges
350
2C
  3
Gouraud
350
2D
  3
GouraudWithEdges
350
2E
  3
Linepattern
350
38
  3
Realistic
350
33
  3
Thicken
350
37
  0
DICTIONARY
  5
39E
102
{ACAD_REACTORS
330
C
102
}
330
C
100
AcDbDictionary
281
     1
  3
DIMASSOC
350
3A1
  3
HIDETEXT
350
3A2
  0
LAYOUT
  5
1E
102
{ACAD_REACTORS
330
1A
102
}
330
1A
100
AcDbPlotSettings
  1

  2
none_device
  4

  6

 40
0.0
 41
0.0
 42
0.0
 43
0.0
 44
0.0
 45
0.0
 46
0.0
 47
0.0
 48
0.0
 49
0.0
140
0.0
141
0.0
142
1.0
143
1.0
 70
   688
 72
     0
 73
     0
 74
     5
  7

 75
    16
147
1.0
148
0.0
149
0.0
100
AcDbLayout
  1
Layout1
 70
     1
 71
     1
 10
0.0
 20
0.0
 11
12.0
 21
9.0
 12
0.0
 22
0.0
 32
0.0
 14
1.00000000000000E+20
 24
1.00000000000000E+20
 34
1.00000000000000E+20
 15
-1.00000000000000E+20
 25
-1.00000000000000E+20
 35
-1.00000000000000E+20
146
0.0
 13
0.0
 23
0.0
 33
0.0
 16
1.0
 26
0.0
 36
0.0
 17
0.0
 27
1.0
 37
0.0
 76
     0
330
1B
  0
LAYOUT
  5
26
102
{ACAD_REACTORS
330
1A
102
}
330
1A
100
AcDbPlotSettings
  1

  2
none_device
  4

  6

 40
0.0
 41
0.0
 42
0.0
 43
0.0
 44
0.0
 45
0.0
 46
0.0
 47
0.0
 48
0.0
 49
0.0
140
0.0
141
0.0
142
1.0
143
1.0
 70
   688
 72
     0
 73
     0
 74
     5
  7

 75
    16
147
1.0
148
0.0
149
0.0
100
AcDbLayout
  1
Layout2
 70
     1
 71
     2
 10
0.0
 20
0.0
 11
0.0
 21
0.0
 12
0.0
 22
0.0
 32
0.0
 14
0.0
 24
0.0
 34
0.0
 15
0.0
 25
0.0
 35
0.0
146
0.0
 13
0.0
 23
0.0
 33
0.0
 16
1.0
 26
0.0
 36
0.0
 17
0.0
 27
1.0
 37
0.0
 76
     0
330
23
  0
LAYOUT
  5
22
102
{ACAD_REACTORS
330
1A
102
}
330
1A
100
AcDbPlotSettings
  1

  2
none_device
  4

  6

 40
0.0
 41
0.0
 42
0.0
 43
0.0
 44
0.0
 45
0.0
 46
0.0
 47
0.0
 48
0.0
 49
0.0
140
0.0
141
0.0
142
1.0
143
1.0
 70
  1712
 72
     0
 73
     0
 74
     0
  7

 75
     0
147
1.0
148
0.0
149
0.0
100
AcDbLayout
  1
Model
 70
     1
 71
     0
 10
0.0
 20
0.0
 11
12.0
 21
9.0
 12
0.0
 22
0.0
 32
0.0
 14
0.0
 24
0.0
 34
0.0
 15
210.0000000000001
 25
297.0000000000001
 35
0.0
146
0.0
 13
0.0
 23
0.0
 33
0.0
 16
1.0
 26
0.0
 36
0.0
 17
0.0
 27
1.0
 37
0.0
 76
     0
330
1F
331
29
  0
MATERIAL
  5
3D
102
{ACAD_REACTORS
330
3B
102
}
102
{ACAD_XDICTIONARY
360
3C5
102
}
330
3B
100
AcDbMaterial
  1
ByBlock
  0
MATERIAL
  5
3C
102
{ACAD_REACTORS
330
3B
102
}
102
{ACAD_XDICTIONARY
360
3C3
102
}
330
3B
100
AcDbMaterial
  1
ByLayer
  0
MATERIAL
  5
3E
102
{ACAD_REACTORS
330
3B
102
}
102
{ACAD_XDICTIONARY
360
3C7
102
}
330
3B
100
AcDbMaterial
  1
Global
  0
MLINESTYLE
  5
18
102
{ACAD_REACTORS
330
17
102
}
330
17
100
AcDbMlineStyle
  2
Standard
 70
     0
  3

 62
   256
 51
90.0
 52
90.0
 71
     2
 49
0.5
 62
   256
  6
BYLAYER
 49
-0.5
 62
   256
  6
BYLAYER
  0
ACDBPLACEHOLDER
  5
F
102
{ACAD_REACTORS
330
E
102
}
330
E
  0
VISUALSTYLE
  5
2F
102
{ACAD_REACTORS
330
2A
102
}
102
{ACAD_XDICTIONARY
360
3AB
102
}
330
2A
100
AcDbVisualStyle
  2
2dWireframe
 70
     4
 71
     0
 72
     2
 73
     0
 90
        0
 40
-0.6
 41
-30.0
 62
     5
 63
     7
 74
     1
 91
        4
 64
     7
 65
   257
 75
     1
175
     1
 42
1.0
 92
        0
 66
   257
 43
1.0
 76
     1
 77
     6
 78
     2
 67
     7
 79
     5
170
     0
171
     0
290
     0
174
     0
 93
        1
 44
0.0
173
     0
291
     0
 45
0.0
1001
ACAD
1000
AcDbSavedByObjectVersion
1070
     0
  0
VISUALSTYLE
  5
31
102
{ACAD_REACTORS
330
2A
102
}
102
{ACAD_XDICTIONARY
360
3AF
102
}
330
2A
100
AcDbVisualStyle
  2
3D Hidden
 70
     6
 71
     1
 72
     2
 73
     2
 90
        0
 40
-0.6
 41
-30.0
 62
     5
 63
     7
 74
     2
 91
        2
 64
     7
 65
   257
 75
     2
175
     1
 42
40.0
 92
        0
 66
   257
 43
1.0
 76
     1
 77
     6
 78
     2
 67
     7
 79
     3
170
     0
171
     0
290
     0
174
     0
 93
        1
 44
0.0
173
     0
291
     0
 45
0.0
1001
ACAD
1000
AcDbSavedByObjectVersion
1070
     0
  0
VISUALSTYLE
  5
30
102
{ACAD_REACTORS
330
2A
102
}
102
{ACAD_XDICTIONARY
360
3AD
102
}
330
2A
100
AcDbVisualStyle
  2
3dWireframe
 70
     5
 71
     0
 72
     2
 73
     0
 90
        0
 40
-0.6
 41
-30.0
 62
     5
 63
     7
 74
     1
 91
        4
 64
     7
 65
   257
 75
     1
175
     1
 42
1.0
 92
        0
 66
   257
 43
1.0
 76
     1
 77
     6
 78
     2
 67
     7
 79
     5
170
     0
171
     0
290
     0
174
     0
 93
        1
 44
0.0
173
     0
291
     0
 45
0.0
1001
ACAD
1000
AcDbSavedByObjectVersion
1070
     0
  0
VISUALSTYLE
  5
32
102
{ACAD_REACTORS
330
2A
102
}
102
{ACAD_XDICTIONARY
360
3B1
102
}
330
2A
100
AcDbVisualStyle
  2
Basic
 70
     7
 71
     1
 72
     0
 73
     1
 90
        0
 40
-0.6
 41
-30.0
 62
     5
 63
     7
 74
     0
 91
        4
 64
     7
 65
   257
 75
     1
175
     1
 42
1.0
 92
        8
 66
     7
 43
1.0
 76
     1
 77
     6
 78
     2
 67
     7
 79
     5
170
     0
171
     0
290
     0
174
     0
 93
        1
 44
0.0
173
     0
291
     1
 45
0.0
1001
ACAD
1000
AcDbSavedByObjectVersion
1070
     0
  0
VISUALSTYLE
  5
36
102
{ACAD_REACTORS
330
2A
102
}
102
{ACAD_XDICTIONARY
360
3B9
102
}
330
2A
100
AcDbVisualStyle
  2
Brighten
 70
    12
 71
     2
 72
     2
 73
     0
 90
        0
 40
-0.6
 41
-30.0
 62
     5
 63
     7
 74
     1
 91
        4
 64
     7
 65
   257
 75
     1
175
     1
 42
1.0
 92
        8
 66
     7
 43
1.0
 76
     1
 77
     6
 78
     2
 67
     7
 79
     5
170
     0
171
     0
290
     0
174
     0
 93
        1
 44
50.0
173
     0
291
     1
 45
0.0
1001
ACAD
1000
AcDbSavedByObjectVersion
1070
     0
  0
VISUALSTYLE
  5
3A
102
{ACAD_REACTORS
330
2A
102
}
102
{ACAD_XDICTIONARY
360
3C1
102
}
330
2A
100
AcDbVisualStyle
  2
ColorChange
 70
    16
 71
     2
 72
     2
 73
     3
 90
        0
 40
-0.6
 41
-30.0
 62
     5
 63
     8
 74
     1
 91
        4
 64
     7
 65
   257
 75
     1
175
     1
 42
1.0
 92
        8
 66
     8
 43
1.0
 76
     1
 77
     6
 78
     2
 67
     7
 79
     5
170
     0
171
     0
290
     0
174
     0
 93
        1
 44
0.0
173
     0
291
     1
 45
0.0
1001
ACAD
1000
AcDbSavedByObjectVersion
1070
     0
  0
VISUALSTYLE
  5
34
102
{ACAD_REACTORS
330
2A
102
}
102
{ACAD_XDICTIONARY
360
3B5
102
}
330
2A
100
AcDbVisualStyle
  2
Conceptual
 70
     9
 71
     3
 72
     2
 73
     0
 90
        0
 40
-0.6
 41
-30.0
 62
     5
 63
     7
 74
     2
 91
        2
 64
     7
 65
   257
 75
     1
175
     1
 42
40.0
 92
        8
 66
     7
 43
1.0
 76
     1
 77
     6
 78
     2
 67
     7
 79
     3
170
     0
171
     0
290
     0
174
     0
 93
        1
 44
0.0
173
     0
291
     0
 45
0.0
1001
ACAD
1000
AcDbSavedByObjectVersion
1070
     0
  0
VISUALSTYLE
  5
35
102
{ACAD_REACTORS
330
2A
102
}
102
{ACAD_XDICTIONARY
360
3B7
102
}
330
2A
100
AcDbVisualStyle
  2
Dim
 70
    11
 71
     2
 72
     2
 73
     0
 90
        0
 40
-0.6
 41
-30.0
 62
     5
 63
     7
 74
     1
 91
        4
 64
     7
 65
   257
 75
     1
175
     1
 42
1.0
 92
        8
 66
     7
 43
1.0
 76
     1
 77
     6
 78
     2
 67
     7
 79
     5
170
     0
171
     0
290
     0
174
     0
 93
        1
 44
-50.0
173
     0
291
     1
 45
0.0
1001
ACAD
1000
AcDbSavedByObjectVersion
1070
     0
  0
VISUALSTYLE
  5
39
102
{ACAD_REACTORS
330
2A
102
}
102
{ACAD_XDICTIONARY
360
3BF
102
}
330
2A
100
AcDbVisualStyle
  2
Facepattern
 70
    15
 71
     2
 72
     2
 73
     0
 90
        0
 40
-0.6
 41
-30.0
 62
     5
 63
     7
 74
     1
 91
        4
 64
     7
 65
   257
 75
     1
175
     1
 42
1.0
 92
        8
 66
     7
 43
1.0
 76
     1
 77
     6
 78
     2
 67
     7
 79
     5
170
     0
171
     0
290
     0
174
     0
 93
        1
 44
0.0
173
     0
291
     1
 45
0.0
1001
ACAD
1000
AcDbSavedByObjectVersion
1070
     0
  0
VISUALSTYLE
  5
2B
102
{ACAD_REACTORS
330
2A
102
}
102
{ACAD_XDICTIONARY
360
3A3
102
}
330
2A
100
AcDbVisualStyle
  2
Flat
 70
     0
 71
     2
 72
     1
 73
     1
 90
        2
 40
-0.6
 41
30.0
 62
     5
 63
     7
 74
     0
 91
        4
 64
     7
 65
   257
 75
     1
175
     1
 42
1.0
 92
        8
 66
     7
 43
1.0
 76
     1
 77
     6
 78
     2
 67
     7
 79
     5
170
     0
171
     0
290
     0
174
     0
 93
       13
 44
0.0
173
     0
291
     1
 45
0.0
1001
ACAD
1000
AcDbSavedByObjectVersion
1070
     0
  0
VISUALSTYLE
  5
2C
102
{ACAD_REACTORS
330
2A
102
}
102
{ACAD_XDICTIONARY
360
3A5
102
}
330
2A
100
AcDbVisualStyle
  2
FlatWithEdges
 70
     1
 71
     2
 72
     1
 73
     1
 90
        2
 40
-0.6
 41
30.0
 62
     5
 63
     7
 74
     1
 91
        4
 64
     7
 65
   257
 75
     1
175
     1
 42
1.0
 92
        0
 66
   257
 43
1.0
 76
     1
 77
     6
 78
     2
 67
     7
 79
     5
170
     0
171
     0
290
     0
174
     0
 93
       13
 44
0.0
173
     0
291
     1
 45
0.0
1001
ACAD
1000
AcDbSavedByObjectVersion
1070
     0
  0
VISUALSTYLE
  5
2D
102
{ACAD_REACTORS
330
2A
102
}
102
{ACAD_XDICTIONARY
360
3A7
102
}
330
2A
100
AcDbVisualStyle
  2
Gouraud
 70
     2
 71
     2
 72
     2
 73
     1
 90
        2
 40
-0.6
 41
30.0
 62
     5
 63
     7
 74
     0
 91
        4
 64
     7
 65
   257
 75
     1
175
     1
 42
1.0
 92
        0
 66
     7
 43
1.0
 76
     1
 77
     6
 78
     2
 67
     7
 79
     5
170
     0
171
     0
290
     0
174
     0
 93
       13
 44
0.0
173
     0
291
     1
 45
0.0
1001
ACAD
1000
AcDbSavedByObjectVersion
1070
     0
  0
VISUALSTYLE
  5
2E
102
{ACAD_REACTORS
330
2A
102
}
102
{ACAD_XDICTIONARY
360
3A9
102
}
330
2A
100
AcDbVisualStyle
  2
GouraudWithEdges
 70
     3
 71
     2
 72
     2
 73
     1
 90
        2
 40
-0.6
 41
30.0
 62
     5
 63
     7
 74
     1
 91
        4
 64
     7
 65
   257
 75
     1
175
     1
 42
1.0
 92
        0
 66
   257
 43
1.0
 76
     1
 77
     6
 78
     2
 67
     7
 79
     5
170
     0
171
     0
290
     0
174
     0
 93
       13
 44
0.0
173
     0
291
     1
 45
0.0
1001
ACAD
1000
AcDbSavedByObjectVersion
1070
     0
  0
VISUALSTYLE
  5
38
102
{ACAD_REACTORS
330
2A
102
}
102
{ACAD_XDICTIONARY
360
3BD
102
}
330
2A
100
AcDbVisualStyle
  2
Linepattern
 70
    14
 71
     2
 72
     2
 73
     0
 90
        0
 40
-0.6
 41
-30.0
 62
     5
 63
     7
 74
     1
 91
        4
 64
     7
 65
   257
 75
     7
175
     7
 42
1.0
 92
        8
 66
     7
 43
1.0
 76
     1
 77
     6
 78
     2
 67
     7
 79
     5
170
     0
171
     0
290
     0
174
     0
 93
        1
 44
0.0
173
     0
291
     1
 45
0.0
1001
ACAD
1000
AcDbSavedByObjectVersion
1070
     0
  0
VISUALSTYLE
  5
33
102
{ACAD_REACTORS
330
2A
102
}
102
{ACAD_XDICTIONARY
360
3B3
102
}
330
2A
100
AcDbVisualStyle
  2
Realistic
 70
     8
 71
     2
 72
     2
 73
     0
 90
        0
 40
-0.6
 41
-30.0
 62
     5
 63
     7
 74
     1
 91
        0
 64
     7
 65
   257
 75
     1
175
     1
 42
1.0
 92
        8
 66
     8
 43
1.0
 76
     1
 77
     6
 78
     2
 67
     7
 79
     5
170
     0
171
     0
290
     0
174
     0
 93
       13
 44
0.0
173
     0
291
     0
 45
0.0
1001
ACAD
1000
AcDbSavedByObjectVersion
1070
     0
  0
VISUALSTYLE
  5
37
102
{ACAD_REACTORS
330
2A
102
}
102
{ACAD_XDICTIONARY
360
3BB
102
}
330
2A
100
AcDbVisualStyle
  2
Thicken
 70
    13
 71
     2
 72
     2
 73
     0
 90
        0
 40
-0.6
 41
-30.0
 62
     5
 63
     7
 74
     1
 91
        4
 64
     7
 65
   257
 75
     1
175
     1
 42
1.0
 92
       12
 66
     7
 43
1.0
 76
     1
 77
     6
 78
     2
 67
     7
 79
     5
170
     0
171
     0
290
     0
174
     0
 93
        1
 44
0.0
173
     0
291
     1
 45
0.0
1001
ACAD
1000
AcDbSavedByObjectVersion
1070
     0
  0
DICTIONARYVAR
  5
3A1
102
{ACAD_REACTORS
330
39E
102
}
330
39E
100
DictionaryVariables
280
     0
  1
2
  0
DICTIONARYVAR
  5
3A2
102
{ACAD_REACTORS
330
39E
102
}
330
39E
100
DictionaryVariables
280
     0
  1
1
  0
DICTIONARY
  5
3C5
330
3D
100
AcDbDictionary
280
     1
281
     1
  3
ACAD_XREC_ROUNDTRIP
360
3C6
  0
DICTIONARY
  5
3C3
330
3C
100
AcDbDictionary
280
     1
281
     1
  3
ACAD_XREC_ROUNDTRIP
360
3C4
  0
DICTIONARY
  5
3C7
330
3E
100
AcDbDictionary
280
     1
281
     1
  3
ACAD_XREC_ROUNDTRIP
360
3C8
  0
DICTIONARY
  5
3AB
330
2F
100
AcDbDictionary
280
     1
281
     1
  3
ACAD_XREC_ROUNDTRIP
360
3AC
  0
DICTIONARY
  5
3AF
330
31
100
AcDbDictionary
280
     1
281
     1
  3
ACAD_XREC_ROUNDTRIP
360
3B0
  0
DICTIONARY
  5
3AD
330
30
100
AcDbDictionary
280
     1
281
     1
  3
ACAD_XREC_ROUNDTRIP
360
3AE
  0
DICTIONARY
  5
3B1
330
32
100
AcDbDictionary
280
     1
281
     1
  3
ACAD_XREC_ROUNDTRIP
360
3B2
  0
DICTIONARY
  5
3B9
330
36
100
AcDbDictionary
280
     1
281
     1
  3
ACAD_XREC_ROUNDTRIP
360
3BA
  0
DICTIONARY
  5
3C1
330
3A
100
AcDbDictionary
280
     1
281
     1
  3
ACAD_XREC_ROUNDTRIP
360
3C2
  0
DICTIONARY
  5
3B5
330
34
100
AcDbDictionary
280
     1
281
     1
  3
ACAD_XREC_ROUNDTRIP
360
3B6
  0
DICTIONARY
  5
3B7
330
35
100
AcDbDictionary
280
     1
281
     1
  3
ACAD_XREC_ROUNDTRIP
360
3B8
  0
DICTIONARY
  5
3BF
330
39
100
AcDbDictionary
280
     1
281
     1
  3
ACAD_XREC_ROUNDTRIP
360
3C0
  0
DICTIONARY
  5
3A3
330
2B
100
AcDbDictionary
280
     1
281
     1
  3
ACAD_XREC_ROUNDTRIP
360
3A4
  0
DICTIONARY
  5
3A5
330
2C
100
AcDbDictionary
280
     1
281
     1
  3
ACAD_XREC_ROUNDTRIP
360
3A6
  0
DICTIONARY
  5
3A7
330
2D
100
AcDbDictionary
280
     1
281
     1
  3
ACAD_XREC_ROUNDTRIP
360
3A8
  0
DICTIONARY
  5
3A9
330
2E
100
AcDbDictionary
280
     1
281
     1
  3
ACAD_XREC_ROUNDTRIP
360
3AA
  0
DICTIONARY
  5
3BD
330
38
100
AcDbDictionary
280
     1
281
     1
  3
ACAD_XREC_ROUNDTRIP
360
3BE
  0
DICTIONARY
  5
3B3
330
33
100
AcDbDictionary
280
     1
281
     1
  3
ACAD_XREC_ROUNDTRIP
360
3B4
  0
DICTIONARY
  5
3BB
330
37
100
AcDbDictionary
280
     1
281
     1
  3
ACAD_XREC_ROUNDTRIP
360
3BC
  0
XRECORD
  5
3C6
102
{ACAD_REACTORS
330
3C5
102
}
330
3C5
100
AcDbXrecord
280
     1
102
MATERIAL
148
0.0
149
0.0
149
0.0
 93
        0
 94
      127
282
     0
 72
     1
 77
     1
171
     1
175
     1
179
     1
273
     0
  0
XRECORD
  5
3C4
102
{ACAD_REACTORS
330
3C3
102
}
330
3C3
100
AcDbXrecord
280
     1
102
MATERIAL
148
0.0
149
0.0
149
0.0
 93
        0
 94
      127
282
     0
 72
     1
 77
     1
171
     1
175
     1
179
     1
273
     0
  0
XRECORD
  5
3C8
102
{ACAD_REACTORS
330
3C7
102
}
330
3C7
100
AcDbXrecord
280
     1
102
MATERIAL
148
0.0
149
0.0
149
0.0
 93
        0
 94
      127
282
     0
 72
     1
 77
     1
171
     1
175
     1
179
     1
273
     0
  0
XRECORD
  5
3AC
102
{ACAD_REACTORS
330
3AB
102
}
330
3AB
100
AcDbXrecord
280
     1
102
RTVSPropertyOp0
 70
     1
102
RTVSPropertyOp1
 70
     1
102
RTVSPropertyOp2
 70
     1
102
RTVSPropertyOp3
 70
     1
102
RTVSPropertyOp4
 70
     1
102
RTVSPropertyOp5
 70
     1
102
RTVSPropertyOp6
 70
     1
102
RTVSPropertyOp7
 70
     1
102
RTVSPropertyOp8
 70
     1
102
RTVSPropertyOp9
 70
     1
102
RTVSPropertyOp10
 70
     1
102
RTVSPropertyOp11
 70
     1
102
RTVSPropertyOp12
 70
     1
102
RTVSPropertyOp13
 70
     1
102
RTVSPropertyOp14
 70
     1
102
RTVSPropertyOp15
 70
     1
102
RTVSPropertyOp16
 70
     1
102
RTVSPropertyOp17
 70
     1
102
RTVSPropertyOp18
 70
     1
102
RTVSPropertyOp19
 70
     1
102
RTVSPropertyOp20
 70
     1
102
RTVSPropertyOp21
 70
     1
102
RTVSPropertyOp22
 70
     1
102
RTVSPropertyOp23
 70
     1
102
RTVSPropertyOp24
 70
     1
102
RTVSPropertyOp25
 70
     1
102
RTVSPropertyOp26
 70
     1
102
RTVSPropertyOp27
 70
     1
102
RTVSPropertyOp28
 70
     1
102
RTVSPropertyOp29
 70
     1
102
RTVSPropertyOp30
 70
     1
102
RTVSPropertyOp31
 70
     1
102
RTVSPropertyOp32
 70
     1
  0
XRECORD
  5
3B0
102
{ACAD_REACTORS
330
3AF
102
}
330
3AF
100
AcDbXrecord
280
     1
102
RTVSPropertyOp0
 70
     1
102
RTVSPropertyOp1
 70
     1
102
RTVSPropertyOp2
 70
     1
102
RTVSPropertyOp3
 70
     1
102
RTVSPropertyOp4
 70
     1
102
RTVSPropertyOp5
 70
     1
102
RTVSPropertyOp6
 70
     1
102
RTVSPropertyOp7
 70
     1
102
RTVSPropertyOp8
 70
     1
102
RTVSPropertyOp9
 70
     1
102
RTVSPropertyOp10
 70
     1
102
RTVSPropertyOp11
 70
     1
102
RTVSPropertyOp12
 70
     1
102
RTVSPropertyOp13
 70
     1
102
RTVSPropertyOp14
 70
     1
102
RTVSPropertyOp15
 70
     1
102
RTVSPropertyOp16
 70
     1
102
RTVSPropertyOp17
 70
     1
102
RTVSPropertyOp18
 70
     1
102
RTVSPropertyOp19
 70
     1
102
RTVSPropertyOp20
 70
     1
102
RTVSPropertyOp21
 70
     1
102
RTVSPropertyOp22
 70
     1
102
RTVSPropertyOp23
 70
     1
102
RTVSPropertyOp24
 70
     1
102
RTVSPropertyOp25
 70
     1
102
RTVSPropertyOp26
 70
     1
102
RTVSPropertyOp27
 70
     1
102
RTVSPropertyOp28
 70
     1
102
RTVSPropertyOp29
 70
     1
102
RTVSPropertyOp30
 70
     1
102
RTVSPropertyOp31
 70
     1
102
RTVSPropertyOp32
 70
     1
  0
XRECORD
  5
3AE
102
{ACAD_REACTORS
330
3AD
102
}
330
3AD
100
AcDbXrecord
280
     1
102
RTVSPropertyOp0
 70
     1
102
RTVSPropertyOp1
 70
     1
102
RTVSPropertyOp2
 70
     1
102
RTVSPropertyOp3
 70
     1
102
RTVSPropertyOp4
 70
     1
102
RTVSPropertyOp5
 70
     1
102
RTVSPropertyOp6
 70
     1
102
RTVSPropertyOp7
 70
     1
102
RTVSPropertyOp8
 70
     1
102
RTVSPropertyOp9
 70
     1
102
RTVSPropertyOp10
 70
     1
102
RTVSPropertyOp11
 70
     1
102
RTVSPropertyOp12
 70
     1
102
RTVSPropertyOp13
 70
     1
102
RTVSPropertyOp14
 70
     1
102
RTVSPropertyOp15
 70
     1
102
RTVSPropertyOp16
 70
     1
102
RTVSPropertyOp17
 70
     1
102
RTVSPropertyOp18
 70
     1
102
RTVSPropertyOp19
 70
     1
102
RTVSPropertyOp20
 70
     1
102
RTVSPropertyOp21
 70
     1
102
RTVSPropertyOp22
 70
     1
102
RTVSPropertyOp23
 70
     1
102
RTVSPropertyOp24
 70
     1
102
RTVSPropertyOp25
 70
     1
102
RTVSPropertyOp26
 70
     1
102
RTVSPropertyOp27
 70
     1
102
RTVSPropertyOp28
 70
     1
102
RTVSPropertyOp29
 70
     1
102
RTVSPropertyOp30
 70
     1
102
RTVSPropertyOp31
 70
     1
102
RTVSPropertyOp32
 70
     1
  0
XRECORD
  5
3B2
102
{ACAD_REACTORS
330
3B1
102
}
330
3B1
100
AcDbXrecord
280
     1
102
RTVSPropertyOp0
 70
     1
102
RTVSPropertyOp1
 70
     1
102
RTVSPropertyOp2
 70
     1
102
RTVSPropertyOp3
 70
     1
102
RTVSPropertyOp4
 70
     1
102
RTVSPropertyOp5
 70
     1
102
RTVSPropertyOp6
 70
     1
102
RTVSPropertyOp7
 70
     1
102
RTVSPropertyOp8
 70
     1
102
RTVSPropertyOp9
 70
     1
102
RTVSPropertyOp10
 70
     1
102
RTVSPropertyOp11
 70
     1
102
RTVSPropertyOp12
 70
     1
102
RTVSPropertyOp13
 70
     1
102
RTVSPropertyOp14
 70
     1
102
RTVSPropertyOp15
 70
     1
102
RTVSPropertyOp16
 70
     1
102
RTVSPropertyOp17
 70
     1
102
RTVSPropertyOp18
 70
     1
102
RTVSPropertyOp19
 70
     1
102
RTVSPropertyOp20
 70
     1
102
RTVSPropertyOp21
 70
     1
102
RTVSPropertyOp22
 70
     1
102
RTVSPropertyOp23
 70
     1
102
RTVSPropertyOp24
 70
     1
102
RTVSPropertyOp25
 70
     1
102
RTVSPropertyOp26
 70
     1
102
RTVSPropertyOp27
 70
     1
102
RTVSPropertyOp28
 70
     1
102
RTVSPropertyOp29
 70
     1
102
RTVSPropertyOp30
 70
     1
102
RTVSPropertyOp31
 70
     1
102
RTVSPropertyOp32
 70
     1
  0
XRECORD
  5
3BA
102
{ACAD_REACTORS
330
3B9
102
}
330
3B9
100
AcDbXrecord
280
     1
102
RTVSPropertyOp0
 70
     1
102
RTVSPropertyOp1
 70
     1
102
RTVSPropertyOp2
 70
     1
102
RTVSPropertyOp3
 70
     1
102
RTVSPropertyOp4
 70
     1
102
RTVSPropertyOp5
 70
     1
102
RTVSPropertyOp6
 70
     1
102
RTVSPropertyOp7
 70
     1
102
RTVSPropertyOp8
 70
     1
102
RTVSPropertyOp9
 70
     1
102
RTVSPropertyOp10
 70
     1
102
RTVSPropertyOp11
 70
     1
102
RTVSPropertyOp12
 70
     1
102
RTVSPropertyOp13
 70
     1
102
RTVSPropertyOp14
 70
     1
102
RTVSPropertyOp15
 70
     1
102
RTVSPropertyOp16
 70
     1
102
RTVSPropertyOp17
 70
     1
102
RTVSPropertyOp18
 70
     1
102
RTVSPropertyOp19
 70
     1
102
RTVSPropertyOp20
 70
     1
102
RTVSPropertyOp21
 70
     1
102
RTVSPropertyOp22
 70
     1
102
RTVSPropertyOp23
 70
     1
102
RTVSPropertyOp24
 70
     1
102
RTVSPropertyOp25
 70
     1
102
RTVSPropertyOp26
 70
     1
102
RTVSPropertyOp27
 70
     1
102
RTVSPropertyOp28
 70
     1
102
RTVSPropertyOp29
 70
     1
102
RTVSPropertyOp30
 70
     1
102
RTVSPropertyOp31
 70
     1
102
RTVSPropertyOp32
 70
     1
  0
XRECORD
  5
3C2
102
{ACAD_REACTORS
330
3C1
102
}
330
3C1
100
AcDbXrecord
280
     1
102
RTVSPropertyOp0
 70
     1
102
RTVSPropertyOp1
 70
     1
102
RTVSPropertyOp2
 70
     1
102
RTVSPropertyOp3
 70
     1
102
RTVSPropertyOp4
 70
     1
102
RTVSPropertyOp5
 70
     1
102
RTVSPropertyOp6
 70
     1
102
RTVSPropertyOp7
 70
     1
102
RTVSPropertyOp8
 70
     1
102
RTVSPropertyOp9
 70
     1
102
RTVSPropertyOp10
 70
     1
102
RTVSPropertyOp11
 70
     1
102
RTVSPropertyOp12
 70
     1
102
RTVSPropertyOp13
 70
     1
102
RTVSPropertyOp14
 70
     1
102
RTVSPropertyOp15
 70
     1
102
RTVSPropertyOp16
 70
     1
102
RTVSPropertyOp17
 70
     1
102
RTVSPropertyOp18
 70
     1
102
RTVSPropertyOp19
 70
     1
102
RTVSPropertyOp20
 70
     1
102
RTVSPropertyOp21
 70
     1
102
RTVSPropertyOp22
 70
     1
102
RTVSPropertyOp23
 70
     1
102
RTVSPropertyOp24
 70
     1
102
RTVSPropertyOp25
 70
     1
102
RTVSPropertyOp26
 70
     1
102
RTVSPropertyOp27
 70
     1
102
RTVSPropertyOp28
 70
     1
102
RTVSPropertyOp29
 70
     1
102
RTVSPropertyOp30
 70
     1
102
RTVSPropertyOp31
 70
     1
102
RTVSPropertyOp32
 70
     1
  0
XRECORD
  5
3B6
102
{ACAD_REACTORS
330
3B5
102
}
330
3B5
100
AcDbXrecord
280
     1
102
RTVSPropertyOp0
 70
     1
102
RTVSPropertyOp1
 70
     1
102
RTVSPropertyOp2
 70
     1
102
RTVSPropertyOp3
 70
     1
102
RTVSPropertyOp4
 70
     1
102
RTVSPropertyOp5
 70
     1
102
RTVSPropertyOp6
 70
     1
102
RTVSPropertyOp7
 70
     1
102
RTVSPropertyOp8
 70
     1
102
RTVSPropertyOp9
 70
     1
102
RTVSPropertyOp10
 70
     1
102
RTVSPropertyOp11
 70
     1
102
RTVSPropertyOp12
 70
     1
102
RTVSPropertyOp13
 70
     1
102
RTVSPropertyOp14
 70
     1
102
RTVSPropertyOp15
 70
     1
102
RTVSPropertyOp16
 70
     1
102
RTVSPropertyOp17
 70
     1
102
RTVSPropertyOp18
 70
     1
102
RTVSPropertyOp19
 70
     1
102
RTVSPropertyOp20
 70
     1
102
RTVSPropertyOp21
 70
     1
102
RTVSPropertyOp22
 70
     1
102
RTVSPropertyOp23
 70
     1
102
RTVSPropertyOp24
 70
     1
102
RTVSPropertyOp25
 70
     1
102
RTVSPropertyOp26
 70
     1
102
RTVSPropertyOp27
 70
     1
102
RTVSPropertyOp28
 70
     1
102
RTVSPropertyOp29
 70
     1
102
RTVSPropertyOp30
 70
     1
102
RTVSPropertyOp31
 70
     1
102
RTVSPropertyOp32
 70
     1
  0
XRECORD
  5
3B8
102
{ACAD_REACTORS
330
3B7
102
}
330
3B7
100
AcDbXrecord
280
     1
102
RTVSPropertyOp0
 70
     1
102
RTVSPropertyOp1
 70
     1
102
RTVSPropertyOp2
 70
     1
102
RTVSPropertyOp3
 70
     1
102
RTVSPropertyOp4
 70
     1
102
RTVSPropertyOp5
 70
     1
102
RTVSPropertyOp6
 70
     1
102
RTVSPropertyOp7
 70
     1
102
RTVSPropertyOp8
 70
     1
102
RTVSPropertyOp9
 70
     1
102
RTVSPropertyOp10
 70
     1
102
RTVSPropertyOp11
 70
     1
102
RTVSPropertyOp12
 70
     1
102
RTVSPropertyOp13
 70
     1
102
RTVSPropertyOp14
 70
     1
102
RTVSPropertyOp15
 70
     1
102
RTVSPropertyOp16
 70
     1
102
RTVSPropertyOp17
 70
     1
102
RTVSPropertyOp18
 70
     1
102
RTVSPropertyOp19
 70
     1
102
RTVSPropertyOp20
 70
     1
102
RTVSPropertyOp21
 70
     1
102
RTVSPropertyOp22
 70
     1
102
RTVSPropertyOp23
 70
     1
102
RTVSPropertyOp24
 70
     1
102
RTVSPropertyOp25
 70
     1
102
RTVSPropertyOp26
 70
     1
102
RTVSPropertyOp27
 70
     1
102
RTVSPropertyOp28
 70
     1
102
RTVSPropertyOp29
 70
     1
102
RTVSPropertyOp30
 70
     1
102
RTVSPropertyOp31
 70
     1
102
RTVSPropertyOp32
 70
     1
  0
XRECORD
  5
3C0
102
{ACAD_REACTORS
330
3BF
102
}
330
3BF
100
AcDbXrecord
280
     1
102
RTVSPropertyOp0
 70
     1
102
RTVSPropertyOp1
 70
     1
102
RTVSPropertyOp2
 70
     1
102
RTVSPropertyOp3
 70
     1
102
RTVSPropertyOp4
 70
     1
102
RTVSPropertyOp5
 70
     1
102
RTVSPropertyOp6
 70
     1
102
RTVSPropertyOp7
 70
     1
102
RTVSPropertyOp8
 70
     1
102
RTVSPropertyOp9
 70
     1
102
RTVSPropertyOp10
 70
     1
102
RTVSPropertyOp11
 70
     1
102
RTVSPropertyOp12
 70
     1
102
RTVSPropertyOp13
 70
     1
102
RTVSPropertyOp14
 70
     1
102
RTVSPropertyOp15
 70
     1
102
RTVSPropertyOp16
 70
     1
102
RTVSPropertyOp17
 70
     1
102
RTVSPropertyOp18
 70
     1
102
RTVSPropertyOp19
 70
     1
102
RTVSPropertyOp20
 70
     1
102
RTVSPropertyOp21
 70
     1
102
RTVSPropertyOp22
 70
     1
102
RTVSPropertyOp23
 70
     1
102
RTVSPropertyOp24
 70
     1
102
RTVSPropertyOp25
 70
     1
102
RTVSPropertyOp26
 70
     1
102
RTVSPropertyOp27
 70
     1
102
RTVSPropertyOp28
 70
     1
102
RTVSPropertyOp29
 70
     1
102
RTVSPropertyOp30
 70
     1
102
RTVSPropertyOp31
 70
     1
102
RTVSPropertyOp32
 70
     1
  0
XRECORD
  5
3A4
102
{ACAD_REACTORS
330
3A3
102
}
330
3A3
100
AcDbXrecord
280
     1
102
RTVSPropertyOp0
 70
     1
102
RTVSPropertyOp1
 70
     1
102
RTVSPropertyOp2
 70
     1
102
RTVSPropertyOp3
 70
     1
102
RTVSPropertyOp4
 70
     1
102
RTVSPropertyOp5
 70
     1
102
RTVSPropertyOp6
 70
     1
102
RTVSPropertyOp7
 70
     1
102
RTVSPropertyOp8
 70
     1
102
RTVSPropertyOp9
 70
     1
102
RTVSPropertyOp10
 70
     1
102
RTVSPropertyOp11
 70
     1
102
RTVSPropertyOp12
 70
     1
102
RTVSPropertyOp13
 70
     1
102
RTVSPropertyOp14
 70
     1
102
RTVSPropertyOp15
 70
     1
102
RTVSPropertyOp16
 70
     1
102
RTVSPropertyOp17
 70
     1
102
RTVSPropertyOp18
 70
     1
102
RTVSPropertyOp19
 70
     1
102
RTVSPropertyOp20
 70
     1
102
RTVSPropertyOp21
 70
     1
102
RTVSPropertyOp22
 70
     1
102
RTVSPropertyOp23
 70
     1
102
RTVSPropertyOp24
 70
     1
102
RTVSPropertyOp25
 70
     1
102
RTVSPropertyOp26
 70
     1
102
RTVSPropertyOp27
 70
     1
102
RTVSPropertyOp28
 70
     1
102
RTVSPropertyOp29
 70
     1
102
RTVSPropertyOp30
 70
     1
102
RTVSPropertyOp31
 70
     1
102
RTVSPropertyOp32
 70
     1
  0
XRECORD
  5
3A6
102
{ACAD_REACTORS
330
3A5
102
}
330
3A5
100
AcDbXrecord
280
     1
102
RTVSPropertyOp0
 70
     1
102
RTVSPropertyOp1
 70
     1
102
RTVSPropertyOp2
 70
     1
102
RTVSPropertyOp3
 70
     1
102
RTVSPropertyOp4
 70
     1
102
RTVSPropertyOp5
 70
     1
102
RTVSPropertyOp6
 70
     1
102
RTVSPropertyOp7
 70
     1
102
RTVSPropertyOp8
 70
     1
102
RTVSPropertyOp9
 70
     1
102
RTVSPropertyOp10
 70
     1
102
RTVSPropertyOp11
 70
     1
102
RTVSPropertyOp12
 70
     1
102
RTVSPropertyOp13
 70
     1
102
RTVSPropertyOp14
 70
     1
102
RTVSPropertyOp15
 70
     1
102
RTVSPropertyOp16
 70
     1
102
RTVSPropertyOp17
 70
     1
102
RTVSPropertyOp18
 70
     1
102
RTVSPropertyOp19
 70
     1
102
RTVSPropertyOp20
 70
     1
102
RTVSPropertyOp21
 70
     1
102
RTVSPropertyOp22
 70
     1
102
RTVSPropertyOp23
 70
     1
102
RTVSPropertyOp24
 70
     1
102
RTVSPropertyOp25
 70
     1
102
RTVSPropertyOp26
 70
     1
102
RTVSPropertyOp27
 70
     1
102
RTVSPropertyOp28
 70
     1
102
RTVSPropertyOp29
 70
     1
102
RTVSPropertyOp30
 70
     1
102
RTVSPropertyOp31
 70
     1
102
RTVSPropertyOp32
 70
     1
  0
XRECORD
  5
3A8
102
{ACAD_REACTORS
330
3A7
102
}
330
3A7
100
AcDbXrecord
280
     1
102
RTVSPropertyOp0
 70
     1
102
RTVSPropertyOp1
 70
     1
102
RTVSPropertyOp2
 70
     1
102
RTVSPropertyOp3
 70
     1
102
RTVSPropertyOp4
 70
     1
102
RTVSPropertyOp5
 70
     1
102
RTVSPropertyOp6
 70
     1
102
RTVSPropertyOp7
 70
     1
102
RTVSPropertyOp8
 70
     1
102
RTVSPropertyOp9
 70
     1
102
RTVSPropertyOp10
 70
     1
102
RTVSPropertyOp11
 70
     1
102
RTVSPropertyOp12
 70
     1
102
RTVSPropertyOp13
 70
     1
102
RTVSPropertyOp14
 70
     1
102
RTVSPropertyOp15
 70
     1
102
RTVSPropertyOp16
 70
     1
102
RTVSPropertyOp17
 70
     1
102
RTVSPropertyOp18
 70
     1
102
RTVSPropertyOp19
 70
     1
102
RTVSPropertyOp20
 70
     1
102
RTVSPropertyOp21
 70
     1
102
RTVSPropertyOp22
 70
     1
102
RTVSPropertyOp23
 70
     1
102
RTVSPropertyOp24
 70
     1
102
RTVSPropertyOp25
 70
     1
102
RTVSPropertyOp26
 70
     1
102
RTVSPropertyOp27
 70
     1
102
RTVSPropertyOp28
 70
     1
102
RTVSPropertyOp29
 70
     1
102
RTVSPropertyOp30
 70
     1
102
RTVSPropertyOp31
 70
     1
102
RTVSPropertyOp32
 70
     1
  0
XRECORD
  5
3AA
102
{ACAD_REACTORS
330
3A9
102
}
330
3A9
100
AcDbXrecord
280
     1
102
RTVSPropertyOp0
 70
     1
102
RTVSPropertyOp1
 70
     1
102
RTVSPropertyOp2
 70
     1
102
RTVSPropertyOp3
 70
     1
102
RTVSPropertyOp4
 70
     1
102
RTVSPropertyOp5
 70
     1
102
RTVSPropertyOp6
 70
     1
102
RTVSPropertyOp7
 70
     1
102
RTVSPropertyOp8
 70
     1
102
RTVSPropertyOp9
 70
     1
102
RTVSPropertyOp10
 70
     1
102
RTVSPropertyOp11
 70
     1
102
RTVSPropertyOp12
 70
     1
102
RTVSPropertyOp13
 70
     1
102
RTVSPropertyOp14
 70
     1
102
RTVSPropertyOp15
 70
     1
102
RTVSPropertyOp16
 70
     1
102
RTVSPropertyOp17
 70
     1
102
RTVSPropertyOp18
 70
     1
102
RTVSPropertyOp19
 70
     1
102
RTVSPropertyOp20
 70
     1
102
RTVSPropertyOp21
 70
     1
102
RTVSPropertyOp22
 70
     1
102
RTVSPropertyOp23
 70
     1
102
RTVSPropertyOp24
 70
     1
102
RTVSPropertyOp25
 70
     1
102
RTVSPropertyOp26
 70
     1
102
RTVSPropertyOp27
 70
     1
102
RTVSPropertyOp28
 70
     1
102
RTVSPropertyOp29
 70
     1
102
RTVSPropertyOp30
 70
     1
102
RTVSPropertyOp31
 70
     1
102
RTVSPropertyOp32
 70
     1
  0
XRECORD
  5
3BE
102
{ACAD_REACTORS
330
3BD
102
}
330
3BD
100
AcDbXrecord
280
     1
102
RTVSPropertyOp0
 70
     1
102
RTVSPropertyOp1
 70
     1
102
RTVSPropertyOp2
 70
     1
102
RTVSPropertyOp3
 70
     1
102
RTVSPropertyOp4
 70
     1
102
RTVSPropertyOp5
 70
     1
102
RTVSPropertyOp6
 70
     1
102
RTVSPropertyOp7
 70
     1
102
RTVSPropertyOp8
 70
     1
102
RTVSPropertyOp9
 70
     1
102
RTVSPropertyOp10
 70
     1
102
RTVSPropertyOp11
 70
     1
102
RTVSPropertyOp12
 70
     1
102
RTVSPropertyOp13
 70
     1
102
RTVSPropertyOp14
 70
     1
102
RTVSPropertyOp15
 70
     1
102
RTVSPropertyOp16
 70
     1
102
RTVSPropertyOp17
 70
     1
102
RTVSPropertyOp18
 70
     1
102
RTVSPropertyOp19
 70
     1
102
RTVSPropertyOp20
 70
     1
102
RTVSPropertyOp21
 70
     1
102
RTVSPropertyOp22
 70
     1
102
RTVSPropertyOp23
 70
     1
102
RTVSPropertyOp24
 70
     1
102
RTVSPropertyOp25
 70
     1
102
RTVSPropertyOp26
 70
     1
102
RTVSPropertyOp27
 70
     1
102
RTVSPropertyOp28
 70
     1
102
RTVSPropertyOp29
 70
     1
102
RTVSPropertyOp30
 70
     1
102
RTVSPropertyOp31
 70
     1
102
RTVSPropertyOp32
 70
     1
  0
XRECORD
  5
3B4
102
{ACAD_REACTORS
330
3B3
102
}
330
3B3
100
AcDbXrecord
280
     1
102
RTVSPropertyOp0
 70
     1
102
RTVSPropertyOp1
 70
     1
102
RTVSPropertyOp2
 70
     1
102
RTVSPropertyOp3
 70
     1
102
RTVSPropertyOp4
 70
     1
102
RTVSPropertyOp5
 70
     1
102
RTVSPropertyOp6
 70
     1
102
RTVSPropertyOp7
 70
     1
102
RTVSPropertyOp8
 70
     1
102
RTVSPropertyOp9
 70
     1
102
RTVSPropertyOp10
 70
     1
102
RTVSPropertyOp11
 70
     1
102
RTVSPropertyOp12
 70
     1
102
RTVSPropertyOp13
 70
     1
102
RTVSPropertyOp14
 70
     1
102
RTVSPropertyOp15
 70
     1
102
RTVSPropertyOp16
 70
     1
102
RTVSPropertyOp17
 70
     1
102
RTVSPropertyOp18
 70
     1
102
RTVSPropertyOp19
 70
     1
102
RTVSPropertyOp20
 70
     1
102
RTVSPropertyOp21
 70
     1
102
RTVSPropertyOp22
 70
     1
102
RTVSPropertyOp23
 70
     1
102
RTVSPropertyOp24
 70
     1
102
RTVSPropertyOp25
 70
     1
102
RTVSPropertyOp26
 70
     1
102
RTVSPropertyOp27
 70
     1
102
RTVSPropertyOp28
 70
     1
102
RTVSPropertyOp29
 70
     1
102
RTVSPropertyOp30
 70
     1
102
RTVSPropertyOp31
 70
     1
102
RTVSPropertyOp32
 70
     1
  0
XRECORD
  5
3BC
102
{ACAD_REACTORS
330
3BB
102
}
330
3BB
100
AcDbXrecord
280
     1
102
RTVSPropertyOp0
 70
     1
102
RTVSPropertyOp1
 70
     1
102
RTVSPropertyOp2
 70
     1
102
RTVSPropertyOp3
 70
     1
102
RTVSPropertyOp4
 70
     1
102
RTVSPropertyOp5
 70
     1
102
RTVSPropertyOp6
 70
     1
102
RTVSPropertyOp7
 70
     1
102
RTVSPropertyOp8
 70
     1
102
RTVSPropertyOp9
 70
     1
102
RTVSPropertyOp10
 70
     1
102
RTVSPropertyOp11
 70
     1
102
RTVSPropertyOp12
 70
     1
102
RTVSPropertyOp13
 70
     1
102
RTVSPropertyOp14
 70
     1
102
RTVSPropertyOp15
 70
     1
102
RTVSPropertyOp16
 70
     1
102
RTVSPropertyOp17
 70
     1
102
RTVSPropertyOp18
 70
     1
102
RTVSPropertyOp19
 70
     1
102
RTVSPropertyOp20
 70
     1
102
RTVSPropertyOp21
 70
     1
102
RTVSPropertyOp22
 70
     1
102
RTVSPropertyOp23
 70
     1
102
RTVSPropertyOp24
 70
     1
102
RTVSPropertyOp25
 70
     1
102
RTVSPropertyOp26
 70
     1
102
RTVSPropertyOp27
 70
     1
102
RTVSPropertyOp28
 70
     1
102
RTVSPropertyOp29
 70
     1
102
RTVSPropertyOp30
 70
     1
102
RTVSPropertyOp31
 70
     1
102
RTVSPropertyOp32
 70
     1
  0
ENDSEC
  0
EOF
